BitTorrentTracker PerecTracker.org
BitTorrentTracker PerecTracker.org
    
Регистрация  ·  Вход
 
 · 
Забыли пароль?

  • Я, папа и собака / I Heart Shakey (Кевин Купер / Kevin Cooper) [2012, США, комедия, приключения, семейный, WEB-DLRip] MVO (НТВ+) + Original Eng

    Ответить на тему
     
    Автор Сообщение

    Light

    Создавать темы 11-Сен-2015 11:09

           

    [Цитировать]

    Я, папа и собака / I Heart Shakey
    Страна: США
    Жанр: комедия, приключения, семейный
    Год выпуска: 2012
    Продолжительность: 01:42:09
    Перевод: Профессиональный (многоголосый закадровый) НТВ+
    Cубтитры: нет
    Оригинальная аудиодорожка: английский
    Режиссер: Кевин Купер / Kevin Cooper
    В ролях: Стив Лемми, Стив Гуттенберг, Беверли Д’Анджело, Альфонсо Арау, Шон Джамброун, Хайди Йоханнингмейер, Филипп Бреннинкмейер, Дусан Браун, Уолт Слоун, Данте Браун
    Описание: Отцу-одиночке из провинции предлагают выгодную работу в большом городе. Особо не раздумывая он переезжает в фешенебельные апартаменты, предоставленные компанией, вместе со своей 10-летней дочерью и собакой. Все лучше не придумаешь, если бы не одна проблема. В апартаментах категорически нельзя проживать с домашними животными. Отец с дочерью решают спрятать на первое время своего любимца Шейки в номере. Вот только их непоседливой и озорной собаке не сидится на месте. Используя первую же возможность она вырывается из квартиры. Тут-то и начинаются приключения!
    Доп. информация: Видеоряд спЁрт из этой http://perectracker.org/viewtopic.php?t=4764093 раздачи. Озвучка та же, но у меня звук 5.1. Добавил английскую дорожку - все равно вес файла в обоих случаях получается нестандартный.
    Сэмпл: http://multi-up.com/1065716
    Качество видео: WEB-DLRip
    Формат видео: AVI
    Видео: MPEG4, XviD, 720x400 (16:9), 23.976 fps, 1 843 Kbps (0.267 bit/pixel)
    Аудио: AC-3, 48.0 KHz, 6 ch, 448 Kbps, CBR - русский
    Аудио 2: MP3, 48.0 KHz, 2 ch, 128 Kbps, CBR - английский

    MediaInfo

    Общее
    Полное имя : K:\Я, папа и собака.avi
    Формат : AVI
    Формат/Информация : Audio Video Interleave
    Размер файла : 1,74 Гбайт
    Продолжительность : 1 ч. 42 м.
    Общий поток : 2433 Кбит/сек
    Название фильма : Я, папа и собака / I Heart Shakey (2012)
    Программа кодирования : VirtualDubMod 1.5.10.2 (build 2540/release)
    Библиотека кодирования : VirtualDubMod build 2540/release
    Видео
    Идентификатор : 0
    Формат : MPEG-4 Visual
    Профиль формата : Advanced Simple@L5
    Параметр BVOP формата : 2
    Параметр QPel формата : Нет
    Параметр GMC формата : Без точки перехода
    Параметр матрицы формата : Default (MPEG)
    Идентификатор кодека : XVID
    Идентификатор кодека/Подсказка : XviD
    Продолжительность : 1 ч. 42 м.
    Битрейт : 1843 Кбит/сек
    Ширина : 720 пикселей
    Высота : 400 пикселей
    Соотношение сторон : 16:9
    Частота кадров : 23,976 кадра/сек
    Цветовое пространство : YUV
    Субдискретизация насыщенности : 4:2:0
    Битовая глубина : 8 бит
    Тип развёртки : Прогрессивная
    Метод сжатия : С потерями
    Бит/(Пиксели*Кадры) : 0.267
    Размер потока : 1,31 Гбайт (76%)
    Библиотека кодирования : XviD 1.2.1 (UTC 2008-12-04)
    Аудио #1
    Идентификатор : 1
    Формат : AC-3
    Формат/Информация : Audio Coding 3
    Расширение режима : CM (complete main)
    Параметр Endianness формата : Big
    Идентификатор кодека : 2000
    Продолжительность : 1 ч. 42 м.
    Вид битрейта : Постоянный
    Битрейт : 448 Кбит/сек
    Каналы : 6 каналов
    Расположение каналов : Front: L C R, Side: L R, LFE
    Частота : 48,0 КГц
    Метод сжатия : С потерями
    Размер потока : 327 Мбайт (18%)
    Выравнивание : Разделение по промежуткам
    Продолжительность промежутка : 42 мс. (1,00 видеокадр)
    Время предзагрузки промежутка : 500 мс.
    Заголовок : Профессиональный (многоголосый закадровый) Кинолюкс
    Аудио #2
    Идентификатор : 2
    Формат : MPEG Audio
    Версия формата : Version 1
    Профиль формата : Layer 3
    Режим : Joint stereo
    Идентификатор кодека : 55
    Идентификатор кодека/Подсказка : MP3
    Продолжительность : 1 ч. 42 м.
    Вид битрейта : Постоянный
    Битрейт : 128 Кбит/сек
    Каналы : 2 канала
    Частота : 48,0 КГц
    Метод сжатия : С потерями
    Задержка видео : 18 мс.
    Размер потока : 93,5 Мбайт (5%)
    Выравнивание : Разделение по промежуткам
    Продолжительность промежутка : 42 мс. (1,00 видеокадр)
    Время предзагрузки промежутка : 500 мс.
    Заголовок : Английский
    Библиотека кодирования : LAME3.97

    Скриншоты


    Скачать .torrent

    Скачать торрент-файл бесплатно и на максимальной скорости!

    Как скачивать? · Что такое торрент? · Рейтинг и ограничения

    !ВНИМАНИЕ!
    Сайт не распространяет и не хранит электронные версии произведений, а занимается лишь лишь предоставлением доступа к создаваемому пользователями каталогу ссылок на торрент-файлы, которые содержат только списки хеш-сумм, убедительная просьба с жалобами обращаться напрямую к пользователю. Файлы для обмена на трекере предоставлены пользователями сайта, и администрация не несёт ответственности за их содержание. Просьба не заливать файлы, защищенные авторскими правами, а также файлы нелегального содержания!


    _________________
    [Профиль] [ЛС]
    Показать сообщения:    
    Ответить на тему

    Текущее время: Сегодня, в 08:11

    Часовой пояс: GMT + 2



    Вы не можете начинать темы
    Вы не можете отвечать на сообщения
    Вы не можете редактировать свои сообщения
    Вы не можете удалять свои сообщения
    Вы не можете голосовать в опросах
    Вы не можете прикреплять файлы к сообщениям
    Вы не можете скачивать файлы