BitTorrentTracker PerecTracker.org
BitTorrentTracker PerecTracker.org
    
Регистрация  ·  Вход
 
 · 
Забыли пароль?

  • Прежде чем мы расстанемся / Before We Go (Крис Эванс / Chris Evans) [2014, США, мелодрама, драма, HDRip] Sub Rus + Original Eng

    Ответить на тему
     
    Автор Сообщение

    Light

    Создавать темы 11-Сен-2015 11:09

           

    [Цитировать]

    Прежде чем мы расстанемся / Before We Go
    Страна: США
    Жанр: романтическая мелодрама, драма
    Год выпуска: 2014
    Продолжительность: 01:35:23
    Перевод: Субтитры
    Cубтитры: русские
    Оригинальная аудиодорожка: английский
    Режиссер: Крис Эванс / Chris Evans
    В ролях: Ховард Болдуин, Карен Элиз Болдуин, Крис Эванс
    Актеры: Крис Эванс, Элис Ив, Скотт Эванс, Эмма Фитцпатрик, Мария Брэймэн, Джон Каллам, Марк Кассен, Бет Катехис, Дэниэл Спинк, Кевин Керолан, Элайджа Морлэнд и другие
    Описание: Мужчина и женщина, ранее не знавшие друг друга, проводят ночь вместе. Противоречия, испытываемые героями в жизни, становятся основой для исследования друг друга и самих себя.
    Доп. информация:

    Перевод: Pandem
    Редактура: Polmila
    Синхронизация: bozxphd
    Режиссёрский дебют довольно известного актёра Криса Эванса
    Сэмпл: https://www.sendspace.com/file/mt4xv8
    Качество видео: HDRip
    Формат видео: AVI
    Видео: 720x384 (1.85:1), 23.976 fps, XviD MPEG-4 ~1642 kbps avg
    Аудио: AC3, 48 KHz, 384 kb/s (6 ch)
    Формат субтитров: softsub (SRT)

    MediaInfo

    D:\Before We Go\Before.We.Go.2014.HDRip.XviD.avi
    General
    Complete name : D:\Before We Go\Before.We.Go.2014.HDRip.XviD.avi
    Format : AVI
    Format/Info : Audio Video Interleave
    File size : 1.35 GiB
    Duration : 1h 35mn
    Overall bit rate : 2 033 Kbps
    Video #0
    ID : 0
    Format : MPEG-4 Visual
    Format profile : Advanced Simple@L5
    Format settings, BVOP : 2
    Format settings, QPel : No
    Format settings, GMC : No warppoints
    Format settings, Matrix : Default (H.263)
    Codec ID : XVID
    Codec ID/Hint : XviD
    Duration : 1h 35mn
    Bit rate : 1 642 Kbps
    Width : 720 pixels
    Height : 384 pixels
    Display aspect ratio : 1.85:1
    Frame rate : 23.976 fps
    Color space : YUV
    Chroma subsampling : 4:2:0
    Bit depth : 8 bits
    Scan type : Progressive
    Compression mode : Lossy
    Bits/(Pixel*Frame) : 0.248
    Stream size : 1.09 GiB (81%)
    Writing library : XviD 66
    Audio #1
    ID : 1
    Format : AC-3
    Format/Info : Audio Coding 3
    Mode extension : CM (complete main)
    Format settings, Endianness : Big
    Codec ID : 2000
    Duration : 1h 35mn
    Bit rate mode : Constant
    Bit rate : 384 Kbps
    Channel(s) : 6 channels
    Channel positions : Front: L C R, Side: L R, LFE
    Sampling rate : 48.0 KHz
    Compression mode : Lossy
    Stream size : 262 MiB (19%)
    Alignment : Aligned on interleaves
    Interleave, duration : 64 ms (1.53 video frames)
    Interleave, preload duration : 192 ms

    Скриншот c названием фильма

    Скриншоты

    Пример субтитров:

    скрытый текст

    318
    00:16:56,510 --> 00:16:57,280
    Может, 40 баксов.
    319
    00:16:57,280 --> 00:16:59,140
    У вас какой-то сумасшедший план.
    320
    00:16:59,150 --> 00:17:01,850
    Спасибо, что не сказали "дурацкий".
    321
    00:17:01,850 --> 00:17:02,680
    Это много значит.
    322
    00:17:02,680 --> 00:17:05,580
    Вы собираетесь просто схватить сумку
    и убежать, да?
    323
    00:17:05,590 --> 00:17:06,590
    Ну... я не знаю.
    324
    00:17:06,590 --> 00:17:09,190
    Хотя это было бы увлекательно, разве нет?
    325
    00:17:09,190 --> 00:17:11,660
    Ладно, идите.
    326
    00:17:25,300 --> 00:17:27,670
    Это вы потеряли сумочку?
    327
    00:17:27,670 --> 00:17:32,640
    Ага, и без неё
    я выгляжу убого.
    328
    00:17:47,060 --> 00:17:49,090
    <i>Алло, отель "Четыре времени года", Атланта.</i>
    329
    00:17:49,100 --> 00:17:53,030
    Номер Майкла Далтона,
    будьте добры.
    330
    00:17:53,030 --> 00:17:56,130
    <i>Одну минуточку.</i>
    331
    00:17:56,140 --> 00:17:57,640
    <i>Алло?</i>
    332
    00:17:57,640 --> 00:17:59,070
    - Привет, милый.
    - <i>Привет.</i>
    333
    00:17:59,070 --> 00:18:00,200
    <i>Что случилось, ты в порядке?</i>
    334
    00:18:00,210 --> 00:18:01,770
    Да, всё хорошо.
    Я просто не могу уснуть.
    335
    00:18:01,780 --> 00:18:05,310
    И... я, я просто хотела сказать,
    что люблю тебя.
    336
    00:18:05,310 --> 00:18:07,850
    <i>О, дорогая, я тоже тебя люблю.</i>
    337
    00:18:07,850 --> 00:18:08,950
    <i>Как там Нью-Йорк?</i>
    338
    00:18:08,950 --> 00:18:10,580
    <i>Ты купила, что хотела?</i>
    339
    00:18:10,580 --> 00:18:12,750
    Да, купила.
    340
    00:18:12,750 --> 00:18:13,250
    За 225.
    Скачать .torrent

    Скачать торрент-файл бесплатно и на максимальной скорости!

    Как скачивать? · Что такое торрент? · Рейтинг и ограничения

    !ВНИМАНИЕ!
    Сайт не распространяет и не хранит электронные версии произведений, а занимается лишь лишь предоставлением доступа к создаваемому пользователями каталогу ссылок на торрент-файлы, которые содержат только списки хеш-сумм, убедительная просьба с жалобами обращаться напрямую к пользователю. Файлы для обмена на трекере предоставлены пользователями сайта, и администрация не несёт ответственности за их содержание. Просьба не заливать файлы, защищенные авторскими правами, а также файлы нелегального содержания!


    _________________
    [Профиль] [ЛС]
    Показать сообщения:    
    Ответить на тему

    Текущее время: Сегодня, в 14:31

    Часовой пояс: GMT + 2



    Вы не можете начинать темы
    Вы не можете отвечать на сообщения
    Вы не можете редактировать свои сообщения
    Вы не можете удалять свои сообщения
    Вы не можете голосовать в опросах
    Вы не можете прикреплять файлы к сообщениям
    Вы не можете скачивать файлы