BitTorrentTracker PerecTracker.org
BitTorrentTracker PerecTracker.org
    
Регистрация  ·  Вход
 
 · 
Забыли пароль?

  • Мотель / Человек с сумкой / The Bag Man (Дэвид Гровик / David Grovic) [2014, США, Багамы, триллер, криминал, BDRip-AVC] MVO (R5) + AVO (Карповский) + Original (Eng) + Subs (Rus, Eng)

    Ответить на тему
     
    Автор Сообщение

    Light

    Создавать темы 11-Сен-2015 11:09

           

    [Цитировать]

    Мотель / Человек с сумкой / The Bag Man
    «The cat's in the bag»
    -Страна: США, Багамы
    Жанр: триллер, криминал
    Год выпуска: 2014
    Продолжительность: 01:48:39-Перевод №1: Профессиональный (многоголосый закадровый) - R5
    Перевод №2: Авторский (одноголосый закадровый) - Антон Карповский
    Оригинальная аудиодорожка: English
    Cубтитры: Русские (полные), English (full)
    Навигация по главам: присутствует - 20 глав-Режиссер: Дэвид Гровик / David Grovic
    В ролях: Джон Кьюсак, Ребекка Да Коста, Роберт Де Ниро, Криспин Гловер, Доминик Пёрселл, Мартин Клебба, Стикки Фингаз, Дэвид Шамбрис, Чезз Менендес, Йен Маклафлин-Описание: Наемный убийца Джек Стаффорд получает несложное задание: приехать в заштатный мотель в 300 милях от Питтсбурга, получить сумку с таинственным содержимым и оставаться в номере, пока за грузом не приедут. Условие одно: ни при каких обстоятельствах не заглядывать внутрь сумки. Но поручение оказывается простым лишь на первый взгляд. Вскоре киллер понимает, что за доверенным ему предметом охотятся коррумпированные агенты ФБР, продажные полицейские, провинциальные гангстеры и кровожадный карлик-цыган из Сербии. И каждый хочет всадить в Джека пулю. Число жертв растет на глазах, и дожить до рассвета смогут далеко не все постояльцы мотеля.-
    Download sample-Качество видео: BDRip-AVC | исх. BDRemux 1080p - thx: Sergei7721 (Кинозал)
    Формат: MKV-Видео: 1 152x480 (2.40:1), 23.976 fps, H.264 ~2 100 kbps avg, 0.150 bit/pixel
    Аудио №1: 48.0 kHz, AC3 Dolby Digital, 3/2 (L,C,R,l,r) + LFE ch, ~448 kbps | Профессиональный (многоголосый закадровый) - R5
    Аудио №2: 48.0 kHz, AC3 Dolby Digital, 3/2 (L,C,R,l,r) + LFE ch, ~448 kbps | Авторский (одноголосый закадровый) - Антон Карповский
    Аудио №3: 48.0 kHz, AC3 Dolby Digital, 3/2 (L,C,R,l,r) + LFE ch, ~448 kbps | English
    Субтитры №1: Русские (полные) | *.srt
    Субтитры №2: English (full) | *.srt-

    MediaInfo

    General
    Unique ID : 205337406732529419889649575982515559628 (0x9A7A8BC8CFE7DFDCB9825152579B1CCC)
    Complete name : D:\Фильмы\Рипы\The Bag Man.2014.BDRip-AVC.eFK tRuAVC.mkv
    Format : Matroska
    Format version : Version 4 / Version 2
    File size : 2.58 GiB
    Duration : 1h 48mn
    Overall bit rate : 3 405 Kbps
    Movie name : Мотель / Человек с сумкой / The Bag Man (2014) - Release for rutracker
    Encoded date : UTC 2015-09-10 14:48:54
    Writing application : mkvmerge v7.6.0 ('Garden of Dreams') 64bit built on Feb 8 2015 13:04:34
    Writing library : libebml v1.3.1 + libmatroska v1.4.2
    Attachements : cover.png
    DURATION : 01:40:53.665000000
    NUMBER_OF_FRAMES : 1283
    NUMBER_OF_BYTES : 40298
    _STATISTICS_WRITING_APP : mkvmerge v7.6.0 ('Garden of Dreams') 64bit built on Feb 8 2015 13:04:34
    _STATISTICS_WRITING_DATE_UT : 2015-09-10 14:48:54
    _STATISTICS_TAGS : BPS DURATION NUMBER_OF_FRAMES NUMBER_OF_BYTES
    Video
    ID : 1
    Format : AVC
    Format/Info : Advanced Video Codec
    Format profile : High@L4.1
    Format settings, CABAC : Yes
    Format settings, ReFrames : 14 frames
    Codec ID : V_MPEG4/ISO/AVC
    Duration : 1h 48mn
    Bit rate : 1 993 Kbps
    Width : 1 152 pixels
    Height : 480 pixels
    Display aspect ratio : 2.40:1
    Frame rate mode : Constant
    Frame rate : 23.976 fps
    Color space : YUV
    Chroma subsampling : 4:2:0
    Bit depth : 8 bits
    Scan type : Progressive
    Bits/(Pixel*Frame) : 0.150
    Stream size : 1.51 GiB (59%)
    Title : eFK tRuAVC
    Writing library : x264 core 148 r2597kMod e86f3a1
    Encoding settings : cabac=1 / ref=14 / deblock=1:-2:-1 / analyse=0x3:0x113 / me=umh / subme=11 / psy=1 / fade_compensate=0.00 / psy_rd=1.05:0.05 / mixed_ref=1 / me_range=48 / chroma_me=1 / trellis=2 / 8x8dct=1 / cqm=0 / deadzone=21,11 / fast_pskip=0 / chroma_qp_offset=-3 / threads=12 / lookahead_threads=3 / sliced_threads=0 / nr=0 / decimate=1 / interlaced=0 / bluray_compat=0 / constrained_intra=0 / fgo=0 / bframes=16 / b_pyramid=2 / b_adapt=2 / b_bias=0 / direct=3 / weightb=1 / open_gop=0 / weightp=2 / keyint=250 / keyint_min=23 / scenecut=40 / intra_refresh=0 / rc_lookahead=60 / rc=crf / mbtree=0 / crf=18.8000 / qcomp=0.70 / qpmin=0 / qpmax=69 / qpstep=4 / vbv_maxrate=50000 / vbv_bufsize=62500 / crf_max=0.0 / nal_hrd=none / filler=0 / ip_ratio=1.40 / pb_ratio=1.30 / aq=3:1.05
    Language : English
    Default : Yes
    Forced : No
    Color range : Limited
    Color primaries : BT.709
    Transfer characteristics : BT.709
    Matrix coefficients : BT.709
    DURATION : 01:48:39.138000000
    NUMBER_OF_FRAMES : 156303
    NUMBER_OF_BYTES : 1676229785
    _STATISTICS_WRITING_APP : mkvmerge v7.6.0 ('Garden of Dreams') 64bit built on Feb 8 2015 13:04:34
    _STATISTICS_WRITING_DATE_UT : 2015-09-10 14:48:54
    _STATISTICS_TAGS : BPS DURATION NUMBER_OF_FRAMES NUMBER_OF_BYTES
    Audio #1
    ID : 2
    Format : AC-3
    Format/Info : Audio Coding 3
    Mode extension : CM (complete main)
    Format settings, Endianness : Big
    Codec ID : A_AC3
    Duration : 1h 48mn
    Bit rate mode : Constant
    Bit rate : 448 Kbps
    Channel(s) : 6 channels
    Channel positions : Front: L C R, Side: L R, LFE
    Sampling rate : 48.0 KHz
    Compression mode : Lossy
    Stream size : 348 MiB (13%)
    Title : MVO (R5)
    Language : Russian
    Default : Yes
    Forced : No
    Audio #2
    ID : 3
    Format : AC-3
    Format/Info : Audio Coding 3
    Mode extension : CM (complete main)
    Format settings, Endianness : Big
    Codec ID : A_AC3
    Duration : 1h 48mn
    Bit rate mode : Constant
    Bit rate : 448 Kbps
    Channel(s) : 6 channels
    Channel positions : Front: L C R, Side: L R, LFE
    Sampling rate : 48.0 KHz
    Compression mode : Lossy
    Stream size : 348 MiB (13%)
    Title : AVO (Карповский)
    Language : Russian
    Default : No
    Forced : No
    Audio #3
    ID : 4
    Format : AC-3
    Format/Info : Audio Coding 3
    Mode extension : CM (complete main)
    Format settings, Endianness : Big
    Codec ID : A_AC3
    Duration : 1h 48mn
    Bit rate mode : Constant
    Bit rate : 448 Kbps
    Channel(s) : 6 channels
    Channel positions : Front: L C R, Side: L R, LFE
    Sampling rate : 48.0 KHz
    Compression mode : Lossy
    Stream size : 348 MiB (13%)
    Language : English
    Default : No
    Forced : No
    Text #1
    ID : 5
    Format : UTF-8
    Codec ID : S_TEXT/UTF8
    Codec ID/Info : UTF-8 Plain Text
    Title : полные
    Language : Russian
    Default : No
    Forced : No
    Text #2
    ID : 6
    Format : UTF-8
    Codec ID : S_TEXT/UTF8
    Codec ID/Info : UTF-8 Plain Text
    Title : full
    Language : English
    Default : No
    Forced : No
    Menu
    00:00:00.000 : :Chapter 01
    00:05:23.905 : :Chapter 02
    00:09:49.588 : :Chapter 03
    00:16:19.561 : :Chapter 04
    00:19:49.188 : :Chapter 05
    00:25:32.239 : :Chapter 06
    00:30:45.718 : :Chapter 07
    00:35:16.405 : :Chapter 08
    00:41:58.724 : :Chapter 09
    00:45:59.840 : :Chapter 10
    00:49:18.372 : :Chapter 11
    00:55:32.829 : :Chapter 12
    00:59:39.993 : :Chapter 13
    01:07:38.387 : :Chapter 14
    01:12:25.674 : :Chapter 15
    01:16:09.398 : :Chapter 16
    01:24:45.580 : :Chapter 17
    01:29:11.137 : :Chapter 18
    01:36:35.080 : :Chapter 19
    01:42:46.952 : :Chapter 20

    x264 log

    x264 [info]: frame I:1036 Avg QP:12.90 size: 70917
    x264 [info]: frame P:31015 Avg QP:14.40 size: 23956
    x264 [info]: frame B:124252 Avg QP:17.12 size: 6920
    x264 [info]: consecutive B-frames: 2.3% 1.8% 6.9% 10.1% 15.6% 42.2% 7.1% 1.8% 2.7% 1.7% 2.1% 1.7% 1.6% 1.2% 0.6% 0.3% 0.4%
    x264 [info]: mb I I16..4: 9.5% 80.0% 10.5%
    x264 [info]: mb P I16..4: 0.7% 9.0% 0.9% P16..4: 29.5% 37.8% 14.1% 0.0% 0.0% skip: 8.0%
    x264 [info]: mb B I16..4: 0.1% 0.4% 0.1% B16..8: 36.2% 24.1% 4.0% direct: 3.6% skip:31.5% L0:46.5% L1:46.7% BI: 6.8%
    x264 [info]: 8x8 transform intra:82.9% inter:59.2%
    x264 [info]: direct mvs spatial:100.0% temporal:0.0%
    x264 [info]: coded y,uvDC,uvAC intra: 89.6% 86.2% 75.8% inter: 17.1% 17.6% 5.8%
    x264 [info]: i16 v,h,dc,p: 38% 10% 8% 44%
    x264 [info]: i8 v,h,dc,ddl,ddr,vr,hd,vl,hu: 8% 7% 11% 10% 13% 13% 12% 12% 14%
    x264 [info]: i4 v,h,dc,ddl,ddr,vr,hd,vl,hu: 7% 8% 15% 9% 14% 13% 12% 10% 12%
    x264 [info]: i8c dc,h,v,p: 49% 22% 14% 15%
    x264 [info]: Weighted P-Frames: Y:8.5% UV:5.3%
    x264 [info]: ref P L0: 44.3% 5.3% 19.2% 7.1% 6.1% 4.1% 4.0% 2.1% 1.9% 1.3% 1.3% 1.0% 1.1% 1.0% 0.2% 0.0%
    x264 [info]: ref B L0: 65.0% 14.5% 7.0% 3.7% 2.5% 2.2% 1.7% 1.0% 0.8% 0.7% 0.5% 0.3% 0.1%
    x264 [info]: ref B L1: 90.7% 9.3%
    x264 [info]: kb/s:2056.99
    x264 [total]: encoded 156303 frames, 7.76 fps, 2057.00 kb/s, duration 5:35:54.70

    Screenshots

    Comparison

    Source

    Encode
    Цитата:
    Цитата:

    • За перевод, данного фильма у Антона Карповского, выражается благодарность пользователям форума hdtracker и e180: zeleniydzhan, Wolf_Larsen, Xerman13, idalgo, Gennady 2013, Savely, Daniel Rock, vik19662007, Gross1978, KpucTo161, carnivale.



    Скачать .torrent

    Скачать торрент-файл бесплатно и на максимальной скорости!

    Как скачивать? · Что такое торрент? · Рейтинг и ограничения

    !ВНИМАНИЕ!
    Сайт не распространяет и не хранит электронные версии произведений, а занимается лишь лишь предоставлением доступа к создаваемому пользователями каталогу ссылок на торрент-файлы, которые содержат только списки хеш-сумм, убедительная просьба с жалобами обращаться напрямую к пользователю. Файлы для обмена на трекере предоставлены пользователями сайта, и администрация не несёт ответственности за их содержание. Просьба не заливать файлы, защищенные авторскими правами, а также файлы нелегального содержания!


    _________________
    [Профиль] [ЛС]
    Показать сообщения:    
    Ответить на тему

    Текущее время: Сегодня, в 14:36

    Часовой пояс: GMT + 2



    Вы не можете начинать темы
    Вы не можете отвечать на сообщения
    Вы не можете редактировать свои сообщения
    Вы не можете удалять свои сообщения
    Вы не можете голосовать в опросах
    Вы не можете прикреплять файлы к сообщениям
    Вы не можете скачивать файлы