BitTorrentTracker PerecTracker.org
BitTorrentTracker PerecTracker.org
    
Регистрация  ·  Вход
 
 · 
Забыли пароль?

  • Нэнси Дрю / Nancy Drew (Эндрю Флеминг / Andrew Fleming) [2007, США, семейный, детектив, WEB-DL 720p] MVO + Sub Rus, Eng + Original Eng

    Ответить на тему
     
    Автор Сообщение

    Flirldrerve

    Создавать темы 10-Сен-2015 18:21

           

    [Цитировать]

    Нэнси Дрю / Nancy Drew
    Страна: США
    Студия: Warner Bros., Virtual Studios, Jerry Weintraub Productions
    Жанр: семейный, детектив
    Год выпуска: 2007
    Продолжительность: 01:39:22
    Перевод: Профессиональный (многоголосый закадровый)
    Cубтитры: русские, английские
    Оригинальная аудиодорожка: английский
    Режиссер: Эндрю Флеминг / Andrew Fleming
    В ролях: Эмма Робертс, Джош Флиттер, Макс Тириот, Рэйчел Ли Кук, Тейт Донован, Кэролайн Аарон, Фил Абрамс, Джоэнн Барон, Маршалл Белл…
    Описание: Нэнси Дрю, юная любительница детективов, вместе со своим отцом отправляется в Лос-Анджелес, где оказывается втянутой в цепь таинственных событий нераскрытого преступления, связанного со смертью красавицы-кинозвезды…
    II Сэмпл II IMDB II
    Тип релиза: WEB-DL 720p
    Контейнер: MKV
    Видео: AVC / 1280x532 / 2,40:1 / 23.976fps / Bit rate 3967Kbps
    Аудио 1: AC3 / 48.0 KHz / 6ch. / 384kbps / rus / mvo
    Аудио 2: AC3 / 48.0 KHz / 6ch. / 384kbps / eng
    Формат субтитров: softsub (SRT)

    MediaInfo

    Общее
    Уникальный идентификатор : 252740790614897310882862108379993541992 (0xBE241B0DEE8F4405B64643D260AF0D68)
    Полное имя : G:\!!!_torrent\Nancy.Drew.2007.WEB-DL.720p_by_vedigo.mkv
    Формат : Matroska
    Версия формата : Version 4 / Version 2
    Размер файла : 3,35 Гбайт
    Продолжительность : 1 ч. 39 м.
    Общий поток : 4831 Кбит/сек
    Название фильма : Nancy.Drew.2007.WEB-DL.720p_by_vedigo
    Дата кодирования : UTC 2015-09-07 02:16:10
    Программа кодирования : mkvmerge v8.3.0 ('Over the Horizon') 64bit
    Библиотека кодирования : libebml v1.3.1 + libmatroska v1.4.2
    DURATION : 01:39:23.008000000
    NUMBER_OF_FRAMES : 186344
    NUMBER_OF_BYTES : 286224384
    _STATISTICS_WRITING_APP : mkvmerge v8.3.0 ('Over the Horizon') 64bit
    _STATISTICS_WRITING_DATE_UTC : 2015-09-07 02:16:10
    _STATISTICS_TAGS : BPS DURATION NUMBER_OF_FRAMES NUMBER_OF_BYTES
    Видео
    Идентификатор : 1
    Формат : AVC
    Формат/Информация : Advanced Video Codec
    Профиль формата : Main@L3.1
    Параметр CABAC формата : Нет
    Параметр ReFrames формата : 2 кадра
    Параметр GOP формата : N=1
    Идентификатор кодека : V_MPEG4/ISO/AVC
    Продолжительность : 1 ч. 39 м.
    Битрейт : 3967 Кбит/сек
    Ширина : 1280 пикселей
    Высота : 532 пикселя
    Соотношение сторон : 2,40:1
    Режим частоты кадров : Постоянный
    Частота кадров : 23,976 кадра/сек
    Цветовое пространство : YUV
    Субдискретизация насыщенности : 4:2:0
    Битовая глубина : 8 бит
    Тип развёртки : Прогрессивная
    Бит/(Пиксели*Кадры) : 0.243
    Размер потока : 2,75 Гбайт (82%)
    Заголовок : Nancy.Drew.2007.WEB-DL.720p_by_vedigo
    Default : Да
    Forced : Нет
    Цветовой диапазон : Limited
    Основные цвета : BT.709
    Характеристики трансфера : BT.709
    Коэффициенты матрицы : BT.709
    Аудио #1
    Идентификатор : 2
    Формат : AC-3
    Формат/Информация : Audio Coding 3
    Расширение режима : CM (complete main)
    Параметр Endianness формата : Big
    Идентификатор кодека : A_AC3
    Продолжительность : 1 ч. 39 м.
    Вид битрейта : Постоянный
    Битрейт : 384 Кбит/сек
    Каналы : 6 каналов
    Расположение каналов : Front: L C R, Side: L R, LFE
    Частота : 48,0 КГц
    Метод сжатия : С потерями
    Размер потока : 273 Мбайт (8%)
    Заголовок : MVO
    Язык : Russian
    Default : Да
    Forced : Нет
    Аудио #2
    Идентификатор : 3
    Формат : AC-3
    Формат/Информация : Audio Coding 3
    Расширение режима : CM (complete main)
    Параметр Endianness формата : Big
    Идентификатор кодека : A_AC3
    Продолжительность : 1 ч. 39 м.
    Вид битрейта : Постоянный
    Битрейт : 384 Кбит/сек
    Каналы : 6 каналов
    Расположение каналов : Front: L C R, Side: L R, LFE
    Частота : 48,0 КГц
    Метод сжатия : С потерями
    Размер потока : 273 Мбайт (8%)
    Заголовок : original
    Язык : English
    Default : Нет
    Forced : Нет
    Текст #1
    Идентификатор : 4
    Формат : UTF-8
    Идентификатор кодека : S_TEXT/UTF8
    Идентификатор кодека/Информация : UTF-8 Plain Text
    Заголовок : subtitle rus
    Язык : Russian
    Default : Нет
    Forced : Нет
    Текст #2
    Идентификатор : 5
    Формат : UTF-8
    Идентификатор кодека : S_TEXT/UTF8
    Идентификатор кодека/Информация : UTF-8 Plain Text
    Заголовок : subtitle eng
    Язык : English
    Default : Нет
    Forced : Нет
    Меню
    00:00:00.000 : en:Chapter 01
    00:03:53.000 : en:Chapter 02
    00:07:27.000 : en:Chapter 03
    00:11:53.000 : en:Chapter 04
    00:16:01.000 : en:Chapter 05
    00:20:08.000 : en:Chapter 06
    00:25:05.000 : en:Chapter 07
    00:27:01.000 : en:Chapter 08
    00:31:50.000 : en:Chapter 09
    00:34:01.000 : en:Chapter 10
    00:36:16.000 : en:Chapter 11
    00:42:56.000 : en:Chapter 12
    00:46:28.000 : en:Chapter 13
    00:49:10.000 : en:Chapter 14
    00:55:32.000 : en:Chapter 15
    01:00:08.000 : en:Chapter 16
    01:04:23.000 : en:Chapter 17
    01:06:55.000 : en:Chapter 18
    01:11:02.000 : en:Chapter 19
    01:14:47.000 : en:Chapter 20
    01:20:15.000 : en:Chapter 21
    01:24:45.000 : en:Chapter 22
    01:28:24.000 : en:Chapter 23
    01:30:17.000 : en:Chapter 24
    01:33:23.000 : en:Chapter 25

    Скриншоты


    Скачать .torrent

    Скачать торрент-файл бесплатно и на максимальной скорости!

    Как скачивать? · Что такое торрент? · Рейтинг и ограничения

    !ВНИМАНИЕ!
    Сайт не распространяет и не хранит электронные версии произведений, а занимается лишь лишь предоставлением доступа к создаваемому пользователями каталогу ссылок на торрент-файлы, которые содержат только списки хеш-сумм, убедительная просьба с жалобами обращаться напрямую к пользователю. Файлы для обмена на трекере предоставлены пользователями сайта, и администрация не несёт ответственности за их содержание. Просьба не заливать файлы, защищенные авторскими правами, а также файлы нелегального содержания!


    _________________
    [Профиль] [ЛС]
    Показать сообщения:    
    Ответить на тему

    Текущее время: Сегодня, в 11:58

    Часовой пояс: GMT + 2



    Вы не можете начинать темы
    Вы не можете отвечать на сообщения
    Вы не можете редактировать свои сообщения
    Вы не можете удалять свои сообщения
    Вы не можете голосовать в опросах
    Вы не можете прикреплять файлы к сообщениям
    Вы не можете скачивать файлы