BitTorrentTracker PerecTracker.org
BitTorrentTracker PerecTracker.org
    
Регистрация  ·  Вход
 
 · 
Забыли пароль?

  • Здравствуйте, я ваша тетя! (Виктор Титов) [1975, Комедия, экранизация, HDTV 1080i]

    Ответить на тему
     
    Автор Сообщение

    Light

    Создавать темы 10-Сен-2015 18:21

           

    [Цитировать]

    Здравствуйте, я ваша тетя!
    Страна: СССР
    Студия: ТО "Экран"
    Жанр: Комедия, экранизация
    Год выпуска: 1975
    Продолжительность: 01:37:10
    Перевод: Не требуется
    Cубтитры: нет
    Оригинальная аудиодорожка: русский
    Режиссер: Виктор Титов
    В ролях: Александр Калягин, Армен Джигарханян, Михаил Любезнов, Олег Шкловский, Михаил Козаков, Тамара Носова, Татьяна Веденеева, Татьяна Васильева, Галина Орлова (II), Валентин Гафт, Виктор Гайнов, Анатолий Малашкин, Владимир Коровкин, Рогволд Суховерко, Антон Макаров, Юрий Прохоров, Николай Тагин, Александр Макаров
    Описание:Англия начала ХХ века. Безработный Бабс волею случая попадает в богатый дом, где вынужден, спасаясь от преследования полицейских, играть роль тетушки-миллионерши, чтобы помочь двум юношам жениться на их возлюбленных. Самозванная бразильская миллионерша должна очаровать опекуна девушек; заодно жертвой ее обаяния становится и отец одного из молодых людей. Экранизация по мотивам пьесы Брэндона Томаса ”Тетка Чарлея”.
    Источник: Собственный рип
    Качество видео: HDTV 1080i
    Формат видео: TS
    Видео: H264; 1920x1080 (16:9); 25.000 fps; ~7 778 Kbps
    Аудио: MPEG Audio Version 1 Layer 2, 48000Hz, 2 channels stereo 192 Кбит/сек

    MediaInfo

    General
    ID : 1 (0x1)
    Complete name : F:\1 HD канал\Здравствуйте, я ваша тетя!_HDTV 1080p_kuzmichm2196.ts
    Format : MPEG-TS
    File size : 5.69 GiB
    Duration : 1h 37mn
    Overall bit rate mode : Variable
    Overall bit rate : 8 386 Kbps
    Video
    ID : 2292 (0x8F4)
    Menu ID : 2291 (0x8F3)
    Format : AVC
    Format/Info : Advanced Video Codec
    Format profile : High@L4.0
    Format settings, CABAC : Yes
    Format settings, ReFrames : 4 frames
    Codec ID : 27
    Duration : 1h 37mn
    Bit rate : 7 778 Kbps
    Width : 1 920 pixels
    Height : 1 080 pixels
    Display aspect ratio : 16:9
    Frame rate : 25.000 fps
    Color space : YUV
    Chroma subsampling : 4:2:0
    Bit depth : 8 bits
    Scan type : MBAFF
    Bits/(Pixel*Frame) : 0.150
    Stream size : 5.28 GiB (93%)
    Audio
    ID : 2295 (0x8F7)
    Menu ID : 2291 (0x8F3)
    Format : MPEG Audio
    Format version : Version 1
    Format profile : Layer 2
    Mode : Joint stereo
    Mode extension : Intensity Stereo + MS Stereo
    Codec ID : 3
    Duration : 1h 37mn
    Bit rate mode : Constant
    Bit rate : 192 Kbps
    Channel(s) : 2 channels
    Sampling rate : 48.0 KHz
    Compression mode : Lossy
    Stream size : 133 MiB (2%)
    Language : English

    Скриншоты




    Скачать .torrent

    Скачать торрент-файл бесплатно и на максимальной скорости!

    Как скачивать? · Что такое торрент? · Рейтинг и ограничения

    !ВНИМАНИЕ!
    Сайт не распространяет и не хранит электронные версии произведений, а занимается лишь лишь предоставлением доступа к создаваемому пользователями каталогу ссылок на торрент-файлы, которые содержат только списки хеш-сумм, убедительная просьба с жалобами обращаться напрямую к пользователю. Файлы для обмена на трекере предоставлены пользователями сайта, и администрация не несёт ответственности за их содержание. Просьба не заливать файлы, защищенные авторскими правами, а также файлы нелегального содержания!


    _________________
    [Профиль] [ЛС]
    Показать сообщения:    
    Ответить на тему

    Текущее время: Сегодня, в 10:33

    Часовой пояс: GMT + 2



    Вы не можете начинать темы
    Вы не можете отвечать на сообщения
    Вы не можете редактировать свои сообщения
    Вы не можете удалять свои сообщения
    Вы не можете голосовать в опросах
    Вы не можете прикреплять файлы к сообщениям
    Вы не можете скачивать файлы