BitTorrentTracker PerecTracker.org
BitTorrentTracker PerecTracker.org
    
Регистрация  ·  Вход
 
 · 
Забыли пароль?

  • Человек в футляре (Исидор Анненский) [1939, Драма, комедия, SATRip-AVC] (Оригинальная версия 1939 года)

    Ответить на тему
     
    Автор Сообщение

    Light

    Создавать темы 10-Сен-2015 14:09

           

    [Цитировать]

    -Человек в футляре-Жанр: Драма, комедия
    Год выпуска: 1939
    Продолжительность: 01:31:25-Режиссёр: Исидор Анненский-В ролях: Николай Хмелев, Михаил Жаров, Ольга Андровская, Владимир Гардин, Владимир Воронов, Осип Абдулов, Александр Лариков, Константин Адашевский, Алексей Бонди, Алексей Грибов, Никандр Баронов, Фаина Раневская, Сабина Луковская, Олег Липкин, Петр Гофман-Описание: Учитель греческого языка Беликов, работающий в сельской гимназии, любил держать вещи в футлярчиках, всего боялся и сам жил, словно в футляре, по принципу: «как бы чего не вышло». Этим принципом он буквально «терроризировал» гимназию и жителей села. Надежда появилась, когда в село приехала Варенька — «не девица, а мармелад», хотя уже и в возрасте, и «не прочь была замуж, хотя бы и за учителя греческого языка».-Доп. информация:

    Оригинальная версия 1939 года: длиннее DVD на 11 минут, родные титры.
    Производство: "Советская Белорусь", СССР, 1939 г.
    По одноимённому рассказу Антона Чехова
    Сценарий: Исидор Анненский
    Оператор: Евгений Шапиро
    Композитор: Александр Голубенцев
    Художник: Людмила Путиевская-Семпл: https://yadi.sk/i/1J-IeCIFiywKx-Качество видео: SATRip-AVC
    Формат видео: MKV
    Видео кодек: H.264
    Аудио кодек: AC3
    Видео: 720x544 (1.32:1), 25 fps, ~2123 kbps
    Аудио: 48 kHz, AC3 Dolby Digital, 2/0 (L,R) ch, ~192 kbps

    MediaInfo

    General
    Unique ID : 214359160228956336558578516646851898142 (0xA1441292E3DCB5E78FF36F902A39EB1E)
    Complete name : C:\Torrent\Человек в футляре.1939.SATRip-AVC by Dmitrio7197\Человек в футляре.1939.SATRip-AVC by Dmitrio7197.mkv
    Format : Matroska
    Format version : Version 2
    File size : 1.48 GiB
    Duration : 1h 31mn
    Overall bit rate : 2 317 Kbps
    Encoded date : UTC 2015-09-10 07:34:04
    Writing application : mkvmerge v6.1.0 ('Old Devil') built on Mar 4 2013 09:10:42
    Writing library : libebml v1.3.0 + libmatroska v1.4.0
    Video
    ID : 1
    Format : AVC
    Format/Info : Advanced Video Codec
    Format profile : High@L4.1
    Format settings, CABAC : Yes
    Format settings, ReFrames : 8 frames
    Codec ID : V_MPEG4/ISO/AVC
    Duration : 1h 31mn
    Bit rate : 2 123 Kbps
    Width : 720 pixels
    Height : 544 pixels
    Display aspect ratio : 4:3
    Frame rate mode : Constant
    Frame rate : 25.000 fps
    Color space : YUV
    Chroma subsampling : 4:2:0
    Bit depth : 8 bits
    Scan type : Progressive
    Bits/(Pixel*Frame) : 0.217
    Stream size : 1.33 GiB (90%)
    Writing library : x264 core 130 r2273 b3065e6
    Encoding settings : cabac=1 / ref=8 / deblock=1:0:0 / analyse=0x3:0x113 / me=umh / subme=11 / psy=1 / psy_rd=1.00:0.00 / mixed_ref=1 / me_range=26 / chroma_me=1 / trellis=2 / 8x8dct=1 / cqm=0 / deadzone=21,11 / fast_pskip=1 / chroma_qp_offset=-2 / threads=6 / lookahead_threads=1 / sliced_threads=0 / nr=0 / decimate=0 / interlaced=0 / bluray_compat=0 / constrained_intra=0 / bframes=8 / b_pyramid=2 / b_adapt=1 / b_bias=0 / direct=3 / weightb=1 / open_gop=0 / weightp=2 / keyint=250 / keyint_min=25 / scenecut=40 / intra_refresh=0 / rc_lookahead=40 / rc=2pass / mbtree=1 / bitrate=2123 / ratetol=1.0 / qcomp=0.60 / qpmin=0 / qpmax=69 / qpstep=4 / cplxblur=20.0 / qblur=0.5 / ip_ratio=1.40 / aq=1:1.00
    Default : Yes
    Forced : No
    Audio
    ID : 2
    Format : AC-3
    Format/Info : Audio Coding 3
    Mode extension : CM (complete main)
    Format settings, Endianness : Big
    Codec ID : A_AC3
    Duration : 1h 31mn
    Bit rate mode : Constant
    Bit rate : 192 Kbps
    Channel(s) : 2 channels
    Channel positions : Front: L R
    Sampling rate : 48.0 KHz
    Bit depth : 16 bits
    Compression mode : Lossy
    Stream size : 126 MiB (8%)
    Default : Yes
    Forced : No

    Скриншоты

    -
    Скачать .torrent

    Скачать торрент-файл бесплатно и на максимальной скорости!

    Как скачивать? · Что такое торрент? · Рейтинг и ограничения

    !ВНИМАНИЕ!
    Сайт не распространяет и не хранит электронные версии произведений, а занимается лишь лишь предоставлением доступа к создаваемому пользователями каталогу ссылок на торрент-файлы, которые содержат только списки хеш-сумм, убедительная просьба с жалобами обращаться напрямую к пользователю. Файлы для обмена на трекере предоставлены пользователями сайта, и администрация не несёт ответственности за их содержание. Просьба не заливать файлы, защищенные авторскими правами, а также файлы нелегального содержания!


    _________________
    [Профиль] [ЛС]
    Показать сообщения:    
    Ответить на тему

    Текущее время: Сегодня, в 04:35

    Часовой пояс: GMT + 2



    Вы не можете начинать темы
    Вы не можете отвечать на сообщения
    Вы не можете редактировать свои сообщения
    Вы не можете удалять свои сообщения
    Вы не можете голосовать в опросах
    Вы не можете прикреплять файлы к сообщениям
    Вы не можете скачивать файлы