Register  ·  Log in
Forgot password?

  • Темные тайны / Dark Places (Жиль Паке-Бреннер / Gilles Paquet-Brenner) [2015, Великобритания, Франция, США, триллер, драма, детектив, BDRip] VO (А.Матвеев)

    Reply to topic
    Author Message


    Post 10-Sep-2015 15:09



    Темные тайны / Dark Places

    «In 1985, her entire family was murdered. 30 years later, the truth emerges»
    -Страна: Великобритания, Франция, США
    Жанр: триллер, драма, детектив
    Год выпуска: 2015
    Продолжительность: 01:52:29
    Перевод: одноголосый закадровый-| Алексей Матвеев |
    Cубтитры: нет
    Оригинальная аудиодорожка: нет-Режиссер: Жиль Паке-Бреннер / Gilles Paquet-Brenner-В ролях: Шарлиз Терон (Libby Day), Стерлинг Джеринс (Young Libby Day), Николас Холт (Lyle Wirth), Кристина Хендрикс (Patty Day), Кори Столл (Ben Day), Тай Шеридан (Young Ben Day), Андреа Рот (Diondra), Хлоя Грейс Морец (Young Diondra), Шон Бриджерс (Runner Day), Дж. ЛаРоуз (Trey Teepano), Шэннон Кук-Чун (Young Trey Trepan), Дженнифер Пирс Матус (Diane)...-Описание: Двадцать четыре года назад Либби Дэй пережила страшную трагедию : ночью убили ее мать и двух сестер, в преступлении признается виновным ее старший брат — Бэн Дэй, вина которого не была доказана полностью. Спустя время Либби Дэй решает возобновить расследование и узнать все, что произошло в ту роковую ночь. Готова ли она пережить этот кошмар вновь? На что она готова пойти ради правды? И какие ужасы хранят в себе эти темные тайны?--Примечание: Присутствует ненормативная лексика.
    -Качество видео: BDRip | Dark.Places.2015.1080p.BluRay.AVC.DTS-HD.MA.5.1 |
    Формат видео: AVI
    Видео: 720x304, 24.000 fps, XviD build 73 ~1477 kbps avg, 0.280 bit/pixel
    Аудио: 48 kHz, AC3 Dolby Digital, 3/2 (L,C,R,l,r) + LFE ch, ~384.00 kbps

    Дополнительно о фильме:

    Производство, студия дубляжа, прокат:


    Complete name : DARK_PLACES.By_Flash.avi
    Format : AVI
    Format/Info : Audio Video Interleave
    File size : 1.47 GiB
    Duration : 1h 52mn
    Overall bit rate : 1 870 Kbps
    Writing application : VirtualDubMod | || (build 2550/release)
    Writing library : VirtualDubMod build 2550/release
    ID : 0
    Format : MPEG-4 Visual
    Format profile : Advanced Simple@L5
    Format settings, BVOP : 1
    Format settings, QPel : No
    Format settings, GMC : No warppoints
    Format settings, Matrix : Custom
    Codec ID : XVID
    Codec ID/Hint : XviD
    Duration : 1h 52mn
    Bit rate : 1 477 Kbps
    Width : 720 pixels
    Height : 304 pixels
    Display aspect ratio : 2.35:1
    Frame rate : 24.000 fps
    Color space : YUV
    Chroma subsampling : 4:2:0
    Bit depth : 8 bits
    Scan type : Progressive
    Compression mode : Lossy
    Bits/(Pixel*Frame) : 0.281
    Stream size : 1.16 GiB (79%)
    Writing library : XviD 73
    ID : 1
    Format : AC-3
    Format/Info : Audio Coding 3
    Mode extension : CM (complete main)
    Format settings, Endianness : Big
    Codec ID : 2000
    Duration : 1h 52mn
    Bit rate mode : Constant
    Bit rate : 384 Kbps
    Channel(s) : 6 channels
    Channel positions : Front: L C R, Side: L R, LFE
    Sampling rate : 48.0 KHz
    Bit depth : 16 bits
    Compression mode : Lossy
    Stream size : 309 MiB (21%)
    Alignment : Split accross interleaves
    Interleave, duration : 42 ms (1.00 video frame)
    Interleave, preload duration : 500 ms

    Скриншот c названием фильма


    Download .torrent

    Download free and at maximum speed!

    How to Download? · What is a torrent? · Ratings and Limitations

    The site does not extend and does not store electronic(digital) versions of products, and only gives access to a reference catalogue created by users on torrent-files which contain only lists of the hash-sums, the earnest entreaty, with complaints(abuse) to access directly to the user. Files for an exchange on tracker are given by users of a site, and the administration does not bear the responsibility for their maintenance. The request to not fill in the files protected by copyrights, and also files of the illegal maintenance!

    [Profile] [PM]
    Display posts from previous:    
    Reply to topic

    The time now is: Today 02:08

    All times are GMT + 3 Hours

    You cannot post new topics in this forum
    You cannot reply to topics in this forum
    You cannot edit your posts in this forum
    You cannot delete your posts in this forum
    You cannot vote in polls in this forum
    You cannot attach files in this forum
    You cannot download files in this forum