BitTorrentTracker PerecTracker.org
BitTorrentTracker PerecTracker.org
    
Регистрация  ·  Вход
 
 · 
Забыли пароль?

  • Тайные милости (Олег Тулаев) [1989 г., драма, TVRip]

    Ответить на тему
     
    Автор Сообщение

    Light

    Создавать темы 10-Сен-2015 01:33

           

    [Цитировать]

    Тайные милости (2 серии)Год выпуска: 1989.
    Жанр: драма.
    Продолжительность: 01:03:53 + 01:03:35 (02:07:28).
    (2 серии)
    Режиссер: Олег Тулаев.
    В ролях:
    Владимир Князев, Ирина Шевчук, Елена Борзова, Борис Иванов, Василе Тэбырцэ, Юрий Шлыков, Майя Булгакова, Ян Янакиев, Дмитрий Наливайчук, Владимир Толубеев.
    Описание:
    По мотивам одноименного романа Вацлава Михальского.
    Действие фильма происходит в небольшом южном городке, основная проблема которого - отсутствие бесперебойного водоснабжения.
    Молодой заместитель председателя горисполкома предлагает ускорить строительство водовода, проведя его через поселок "Шанхай", самовольно застроенный людьми, тем самым лишая сотни семей крова...

    Доп. информация:
    Страна: СССР .
    Киностудия: Киностудия "Молдова-фильм".
    Автор сценария: Вацлав Михальский.
    Оператор: Александр Майка.
    Композитор: Геннадий Трофимов.
    Художник: Федор Лупашко.

    Релиз.....

    Качество: TVRip
    Формат: AVI
    Видео: 720x544 (1.32:1), 25 fps, XviD build 73 ~1499 kbps avg, 0.15 bit/pixel
    Аудио: 48 kHz, MPEG Layer 3, 2 ch, ~128.00 kbps avg

    Отчет MI

    1-я серия
    Общее
    Полное имя : Tainye.milosti\Tainye.milosti.(2.serii.iz.2).1989.XviD.TVRip.fenixclub\Tainye.milosti.(1-ya.seriya.iz.2).1989.XviD.TVRip.fenixclub.avi
    Format : AVI
    Format/Info : Audio Video Interleave
    File size : 747 MiB
    Duration : 1h 3mn
    Overall bit rate : 1 636 Kbps
    Video
    ID : 0
    Format : MPEG-4 Visual
    Format profile : Advanced Simple@L5
    Format settings, BVOP : 2
    Format settings, QPel : No
    Format settings, GMC : No warppoints
    Format settings, Matrix : Default (H.263)
    Codec ID : XVID
    Codec ID/Hint : XviD
    Duration : 1h 3mn
    Bit rate : 1 498 Kbps
    Width : 720 pixels
    Height : 544 pixels
    Display aspect ratio : 4:3
    Frame rate : 25.000 fps
    Color space : YUV
    Chroma subsampling : 4:2:0
    Bit depth : 8 bits
    Scan type : Progressive
    Compression mode : Lossy
    Bits/(Pixel*Frame) : 0.153
    Stream size : 684 MiB (92%)
    Writing library : XviD 73
    Audio
    ID : 1
    Format : MPEG Audio
    Format version : Version 1
    Format profile : Layer 3
    Mode : Joint stereo
    Mode extension : MS Stereo
    Codec ID : 55
    Codec ID/Hint : MP3
    Duration : 1h 3mn
    Bit rate mode : Constant
    Bit rate : 128 Kbps
    Channel(s) : 2 channels
    Sampling rate : 48.0 KHz
    Compression mode : Lossy
    Stream size : 58.5 MiB (8%)
    Alignment : Split accross interleaves
    Interleave, duration : 40 ms (1.00 video frame)
    Interleave, preload duratio : 500 ms.
    2-я серия
    Общее
    Полное имя : Tainye.milosti.(2.serii.iz.2).1989.XviD.TVRip.fenixclub\Tainye.milosti.(2-ya.seriya.iz.2).1989.XviD.TVRip.fenixclub.avi
    Format : AVI
    Format/Info : Audio Video Interleave
    File size : 745 MiB
    Duration : 1h 3mn
    Overall bit rate : 1 637 Kbps
    Video
    ID : 0
    Format : MPEG-4 Visual
    Format profile : Advanced Simple@L5
    Format settings, BVOP : 2
    Format settings, QPel : No
    Format settings, GMC : No warppoints
    Format settings, Matrix : Default (H.263)
    Codec ID : XVID
    Codec ID/Hint : XviD
    Duration : 1h 3mn
    Bit rate : 1 500 Kbps
    Width : 720 pixels
    Height : 544 pixels
    Display aspect ratio : 4:3
    Frame rate : 25.000 fps
    Color space : YUV
    Chroma subsampling : 4:2:0
    Bit depth : 8 bits
    Scan type : Progressive
    Compression mode : Lossy
    Bits/(Pixel*Frame) : 0.153
    Stream size : 682 MiB (92%)
    Writing library : XviD 73
    Audio
    ID : 1
    Format : MPEG Audio
    Format version : Version 1
    Format profile : Layer 3
    Mode : Joint stereo
    Mode extension : MS Stereo
    Codec ID : 55
    Codec ID/Hint : MP3
    Duration : 1h 3mn
    Bit rate mode : Constant
    Bit rate : 128 Kbps
    Channel(s) : 2 channels
    Sampling rate : 48.0 KHz
    Compression mode : Lossy
    Stream size : 58.2 MiB (8%)
    Alignment : Split accross interleaves
    Interleave, duration : 40 ms (1.00 video frame)
    Interleave, preload duratio : 500 ms.
    Скриншоты

    Альтернативный хост


    Скачать .torrent

    Скачать торрент-файл бесплатно и на максимальной скорости!

    Как скачивать? · Что такое торрент? · Рейтинг и ограничения

    !ВНИМАНИЕ!
    Сайт не распространяет и не хранит электронные версии произведений, а занимается лишь лишь предоставлением доступа к создаваемому пользователями каталогу ссылок на торрент-файлы, которые содержат только списки хеш-сумм, убедительная просьба с жалобами обращаться напрямую к пользователю. Файлы для обмена на трекере предоставлены пользователями сайта, и администрация не несёт ответственности за их содержание. Просьба не заливать файлы, защищенные авторскими правами, а также файлы нелегального содержания!


    _________________
    [Профиль] [ЛС]
    Показать сообщения:    
    Ответить на тему

    Текущее время: Сегодня, в 07:13

    Часовой пояс: GMT + 2



    Вы не можете начинать темы
    Вы не можете отвечать на сообщения
    Вы не можете редактировать свои сообщения
    Вы не можете удалять свои сообщения
    Вы не можете голосовать в опросах
    Вы не можете прикреплять файлы к сообщениям
    Вы не можете скачивать файлы