BitTorrentTracker PerecTracker.org
BitTorrentTracker PerecTracker.org
    
Регистрация  ·  Вход
 
 · 
Забыли пароль?

  • 13 грехов / 13 Sins (Даниэль Штамм / Daniel Stamm) [2014, США, триллер, ужасы, BDRip] Dub

    Ответить на тему
     
    Автор Сообщение

    Light

    Создавать темы 09-Сен-2015 17:13

           

    [Цитировать]

    13 грехов / 13 Sins
    Страна: США
    Жанр: триллер, ужасы
    Год выпуска: 2014
    Продолжительность: 01:32:31
    Перевод: Профессиональный (дублированный)
    Cубтитры: нет
    Оригинальная аудиодорожка: нет
    Режиссер: Даниэль Штамм / Daniel Stamm
    В ролях: Марк Веббер, Рутина Уэсли, Девон Грайе, Прюитт Тэйлор Винс, Том Бауэр, Рон Перлман, Клайд Джонс, Денин Тайлер, Грег Пирсон, Ричи Монтгомери
    Описание: Эллиот Бриндл — умный кроткий сотрудник службы социального обеспечения, тонущий в долгах. Но все меняется, когда раздается телефонный звонок. На том конце провода ему сообщают, что он становится участником тв-шоу, условия простые — выполнить 13 заданий, какими бы странными они не были; приз — деньги, которые копятся с каждым выполненным заданием. Отказ от выполнения или провал задания ведет к обнулению банка.Деньги можно забрать только выполнив все 13 заданий ведущего. Эллиот следует первым инструкциям и с легкостью съедает пойманную муху. На счету Бриндла появляются первые легкие деньги. Эллиот хочет, но не может прекратить игру, чтобы не потерять «заработанное», хотя задачи становятся более изощренными и опасными, а точка невозврата вот-вот будет пройдена.
    Сэмпл: http://multi-up.com/1065162
    Качество видео: BDRip (исходник 13.Sins.2014.1080p.BluRay.AVC.DTS-HD.MA.5.1)
    Формат видео: AVI
    Видео: 720x304 (2.37:1), 23.976 fps, XviD build 73 ~1802 kbps avg, 0.34 bit/pixel
    Аудио: 48 kHz, AC3 Dolby Digital, 3/2 (L,C,R,l,r) + LFE ch, ~448 kbps

    MediaInfo

    Format : AVI
    Format/Info : Audio Video Interleave
    File size : 1.46 GiB
    Duration : 1h 32mn
    Overall bit rate : 2 258 Kbps
    Writing application : VirtualDubMod 1.5.10.3 (build 2550/release)
    Video
    ID : 0
    Format : MPEG-4 Visual
    Format profile : Advanced Simple@L5
    Format settings, BVOP : Yes
    Format settings, QPel : No
    Format settings, GMC : No warppoints
    Format settings, Matrix : Custom
    Codec ID : XVID
    Codec ID/Hint : XviD
    Duration : 1h 32mn
    Bit rate : 1 802 Kbps
    Width : 720 pixels
    Height : 304 pixels
    Display aspect ratio : 2.35:1
    Frame rate : 23.976 fps
    Resolution : 8 bits
    Colorimetry : 4:2:0
    Scan type : Progressive
    Bits/(Pixel*Frame) : 0.343
    Stream size : 1.16 GiB (80%)
    Writing library : XviD 73
    Audio
    ID : 1
    Format : AC-3
    Format/Info : Audio Coding 3
    Codec ID : 2000
    Duration : 1h 32mn
    Bit rate mode : Constant
    Bit rate : 448 Kbps
    Channel(s) : 6 channels
    Channel positions : Front: L C R, Surround: L R, LFE
    Sampling rate : 48.0 KHz
    Stream size : 296 MiB (20%)
    Alignment : Split accross interleaves
    Interleave, duration : 42 ms (1.00 video frame)
    Interleave, preload duration : 500 ms

    Скриншот c названием фильма

    Скриншоты

    Скачать .torrent

    Скачать торрент-файл бесплатно и на максимальной скорости!

    Как скачивать? · Что такое торрент? · Рейтинг и ограничения

    !ВНИМАНИЕ!
    Сайт не распространяет и не хранит электронные версии произведений, а занимается лишь лишь предоставлением доступа к создаваемому пользователями каталогу ссылок на торрент-файлы, которые содержат только списки хеш-сумм, убедительная просьба с жалобами обращаться напрямую к пользователю. Файлы для обмена на трекере предоставлены пользователями сайта, и администрация не несёт ответственности за их содержание. Просьба не заливать файлы, защищенные авторскими правами, а также файлы нелегального содержания!


    _________________
    [Профиль] [ЛС]
    Показать сообщения:    
    Ответить на тему

    Текущее время: Сегодня, в 08:05

    Часовой пояс: GMT + 2



    Вы не можете начинать темы
    Вы не можете отвечать на сообщения
    Вы не можете редактировать свои сообщения
    Вы не можете удалять свои сообщения
    Вы не можете голосовать в опросах
    Вы не можете прикреплять файлы к сообщениям
    Вы не можете скачивать файлы