BitTorrentTracker PerecTracker.org
BitTorrentTracker PerecTracker.org
    
Регистрация  ·  Вход
 
 · 
Забыли пароль?

  • Дачники (Борис Бабочкин, Елена Скачко) [1966, драма, DVDRip-AVC]

    Ответить на тему
     
    Автор Сообщение

    Light

    Создавать темы 09-Сен-2015 13:01

           

    [Цитировать]

    Дачники-Жанр: драма
    Год выпуска: 1966
    Продолжительность: 01:37:42-Режиссёр: Борис Бабочкин, Елена Скачко-В ролях:
    Николай Анненков, Руфина Нифонтова, Генриетта Егорова, Евгений Ануфриев, Борис Бабочкин, Никита Подгорный, Елизавета Солодова, Ольга Хорькова, Георгий Куликов, Людмила Щербинина, Иван Любезнов, Георгий Третьяков, Анатолий Ларионов, Элина Быстрицкая
    Описание:
    Одна из лучших экранизаций одноименной пьесы М. Горького. Об ущербности духовного самосознания русской интеллигенции в канун 1905 года. В центре фильма судьба Варвары Басовой, которую мучит существование, лишенное идеалов и нравственного содержания.-Сэмпл | Кинопоиск-Качество видео: DVDRip-AVC
    Формат видео: MKV
    Видео: x264 (High@L4.1); 690@736x442, Display aspect ratio 1.665:1, 25.000 fps, 1936 Kbps
    Аудио: Оригинал AC-3; 16 bits 48 Khz; 2.0ch 192 Kbps; CBR
    MediaInfo

    -

    x264 log

    avs [info]: 690x442p 16:15 @ 25/1 fps (cfr)
    x264 [info]: using SAR=16/15
    x264 [info]: using cpu capabilities: MMX2 SSE2Fast SSSE3 SSE4.2
    x264 [info]: profile High, level 4.1
    x264 [info]: frame I:753 Avg QP:15.92 size: 49590
    x264 [info]: frame P:37025 Avg QP:18.31 size: 20280
    x264 [info]: frame B:108772 Avg QP:20.85 size: 5794
    x264 [info]: consecutive B-frames: 2.7% 3.7% 11.8% 36.9% 20.9% 20.6% 2.7% 0.8%
    x264 [info]: mb I I16..4: 6.2% 64.5% 29.3%
    x264 [info]: mb P I16..4: 0.1% 5.2% 2.1% P16..4: 37.0% 31.2% 21.8% 1.5% 0.3% skip: 0.8%
    x264 [info]: mb B I16..4: 0.0% 0.3% 0.2% B16..8: 37.5% 14.2% 4.1% direct:10.5% skip:33.2% L0:28.9% L1:34.4% BI:36.8%
    x264 [info]: 8x8 transform intra:67.2% inter:56.6%
    x264 [info]: direct mvs spatial:99.4% temporal:0.6%
    x264 [info]: coded y,uvDC,uvAC intra: 93.7% 0.8% 0.7% inter: 38.9% 0.1% 0.1%
    x264 [info]: i16 v,h,dc,p: 17% 24% 29% 30%
    x264 [info]: i8 v,h,dc,ddl,ddr,vr,hd,vl,hu: 17% 14% 6% 7% 11% 12% 10% 11% 12%
    x264 [info]: i4 v,h,dc,ddl,ddr,vr,hd,vl,hu: 12% 23% 3% 7% 12% 12% 11% 10% 11%
    x264 [info]: i8c dc,h,v,p: 99% 1% 0% 0%
    x264 [info]: Weighted P-Frames: Y:24.1% UV:0.2%
    x264 [info]: ref P L0: 42.3% 15.3% 15.1% 5.3% 4.4% 3.1% 3.0% 1.7% 1.7% 1.4% 1.4% 1.1% 1.2% 1.0% 1.1% 0.9%
    x264 [info]: ref B L0: 84.4% 7.7% 2.1% 1.3% 0.8% 0.8% 0.6% 0.4% 0.3% 0.3% 0.3% 0.3% 0.2% 0.2% 0.1%
    x264 [info]: ref B L1: 97.6% 2.4%
    x264 [info]: kb/s:1935.71
    x264 [total]: encoded 146550 frames, 11.94 fps, 1935.71 kb/s
    -General
    Unique ID : 171307000244236877195467151980142371764 (0x80E0873488A98586A551B3BFEFCDA3B4)
    Complete name : Дачники.1966.mkv
    Format : Matroska
    Format version : Version 2
    File size : 1.45 GiB
    Duration : 1h 37mn
    Overall bit rate : 2 129 Kbps
    Movie name : «Дачники»
    Encoded date : UTC 2015-09-08 19:30:10
    Writing application : mkvmerge v5.8.0 ('No Sleep / Pillow') built on Sep 2 2012 15:37:04
    Writing library : libebml v1.2.3 + libmatroska v1.3.0
    Comment : DVDRip-AVC
    Originally released : September 7th 2015
    Encoded by : george$t®
    Video
    ID : 1
    Format : AVC
    Format/Info : Advanced Video Codec
    Format profile : High@L4.1
    Format settings, CABAC : Yes
    Format settings, ReFrames : 16 frames
    Codec ID : V_MPEG4/ISO/AVC
    Duration : 1h 37mn
    Bit rate : 1 936 Kbps
    Width : 690 pixels
    Height : 442 pixels
    Display aspect ratio : 1.665
    Frame rate mode : Constant
    Frame rate : 25.000 fps
    Color space : YUV
    Chroma subsampling : 4:2:0
    Bit depth : 8 bits
    Scan type : Progressive
    Bits/(Pixel*Frame) : 0.254
    Stream size : 1.29 GiB (89%)
    Title : Дачники.1966
    Writing library : x264 core 148 r2579kMod 73ae2d1
    Encoding settings : cabac=1 / ref=16 / deblock=1:-2:-1 / analyse=0x3:0x133 / me=umh / subme=10 / psy=1 / fade_compensate=0.00 / psy_rd=0.90:0.12 / mixed_ref=1 / me_range=24 / chroma_me=1 / trellis=2 / 8x8dct=1 / cqm=0 / deadzone=21,11 / fast_pskip=0 / chroma_qp_offset=-3 / threads=12 / lookahead_threads=2 / sliced_threads=0 / nr=0 / decimate=0 / interlaced=0 / bluray_compat=0 / constrained_intra=0 / fgo=0 / bframes=7 / b_pyramid=2 / b_adapt=2 / b_bias=0 / direct=3 / weightb=1 / open_gop=0 / weightp=2 / keyint=250 / keyint_min=25 / scenecut=40 / intra_refresh=0 / rc_lookahead=40 / rc=2pass / mbtree=0 / bitrate=1936 / ratetol=1.0 / qcomp=0.55 / qpmin=0 / qpmax=69 / qpstep=4 / cplxblur=20.0 / qblur=0.5 / vbv_maxrate=50000 / vbv_bufsize=62500 / nal_hrd=none / filler=0 / ip_ratio=1.35 / pb_ratio=1.30 / aq=2:0.70
    Language : Russian
    Default : Yes
    Forced : No
    Color primaries : BT.601 PAL
    Transfer characteristics : BT.470 System B, BT.470 System G
    Matrix coefficients : BT.601
    Color range : Limited
    Audio
    ID : 2
    Format : AC-3
    Format/Info : Audio Coding 3
    Mode extension : CM (complete main)
    Format settings, Endianness : Big
    Codec ID : A_AC3
    Duration : 1h 37mn
    Bit rate mode : Constant
    Bit rate : 192 Kbps
    Channel(s) : 2 channels
    Channel positions : Front: L R
    Sampling rate : 48.0 KHz
    Bit depth : 16 bits
    Compression mode : Lossy
    Stream size : 134 MiB (9%)
    Title : Оригинал AC-3; 16 bits 48 Khz; 2.0ch 192 Kbps; CBR
    Language : Russian
    Default : Yes
    Forced : No
    Menu
    00:00:00.000 : ru:Рюмин. В доме Басовых
    00:09:38.880 : ru:Замыслов. Брат и сестра
    00:14:57.680 : ru:Многодетная мать. Мужчины Юлии
    00:19:55.680 : ru:Гости
    00:26:16.280 : ru:"Эдельвейс". Влюбленные
    00:29:55.360 : ru:Писатель Шалимов. Дядюшка
    00:36:29.880 : ru:Разговоры за чаем
    00:39:56.280 : ru:Инженер Суслов. Ольга и Варвара
    00:45:19.080 : ru:Перед репетицией. Рыбаки
    00:53:38.840 : ru:На пикнике
    01:01:48.560 : ru:Встречи тет-а-тет. Одинокие души
    01:13:24.520 : ru:Последний вечер. "Скандал в благородном семействе"
    01:27:48.400 : ru:Попытка самоубийства. Ряженые

    Скриншоты

    Скачать .torrent

    Скачать торрент-файл бесплатно и на максимальной скорости!

    Как скачивать? · Что такое торрент? · Рейтинг и ограничения

    !ВНИМАНИЕ!
    Сайт не распространяет и не хранит электронные версии произведений, а занимается лишь лишь предоставлением доступа к создаваемому пользователями каталогу ссылок на торрент-файлы, которые содержат только списки хеш-сумм, убедительная просьба с жалобами обращаться напрямую к пользователю. Файлы для обмена на трекере предоставлены пользователями сайта, и администрация не несёт ответственности за их содержание. Просьба не заливать файлы, защищенные авторскими правами, а также файлы нелегального содержания!


    _________________
    [Профиль] [ЛС]
    Показать сообщения:    
    Ответить на тему

    Текущее время: Сегодня, в 08:43

    Часовой пояс: GMT + 2



    Вы не можете начинать темы
    Вы не можете отвечать на сообщения
    Вы не можете редактировать свои сообщения
    Вы не можете удалять свои сообщения
    Вы не можете голосовать в опросах
    Вы не можете прикреплять файлы к сообщениям
    Вы не можете скачивать файлы