BitTorrentTracker PerecTracker.org
BitTorrentTracker PerecTracker.org
    
Регистрация  ·  Вход
 
 · 
Забыли пароль?

  • Иллюзия обмана / Now You See Me (Луи Летерье / Louis Leterrier) [2013, Франция, США, триллер, криминал, детектив, HDRip] [Расширенная версия] Dub + AVO (в местах без дубляжа)

    Ответить на тему
     
    Автор Сообщение

    Light

    Создавать темы 09-Сен-2015 08:49

           

    [Цитировать]

    Иллюзия обмана / Now You See Me
    Страна: Франция, США
    Жанр: триллер, криминал, детектив
    Год выпуска: 2013
    Продолжительность: 02:04:48
    Перевод: Профессиональный (дублированный) + AVO Ю. Сербин в местах без дубляжа
    Cубтитры: отсутствуют
    Оригинальная аудиодорожка: нет
    Режиссер: Луи Летерье / Louis Leterrier
    В ролях: Марк Руффало, Джесси Айзенберг,
    Вуди Харрельсон, Айла Фишер, Дэйв Франко,
    Мелани Лоран, Морган Фриман, Майкл Кейн,
    Майкл Келли, Коммон и др.
    Описание: Команда лучших иллюзионистов мира проворачивает дерзкие
    ограбления прямо во время своих шоу, играя в кошки-мышки с агентами ФБР...
    Качество видео: HDRip
    Формат видео: AVI
    Vidео: XviD MPEG-4, 688x288, 2.40:1, 23.976 fps, ~705 kbps avg, 0.148 bit/pixel
    Аudiо: MP-3 Stereo, CBR 128 kbps 2 ch, 48.0 KHz (Dub + AVO)

    MediaInfo

    ОбщееПолное имя : V:\Now_You_See_Me_2013_HDRip_[perectracker.org].aviФормат : AVIФормат/Информация : Audio Video InterleaveРазмер файла : 752 МбайтПродолжительность : 2 ч. 4 м.Общий поток : 842 Кбит/секПрограмма кодирования : VirtualDubMod 1.5.10.3 | www.virtualdub-fr.org || (build 2550/release)Библиотека кодирования : VirtualDubMod build 2550/release
    ВидеоИдентификатор : 0Формат : MPEG-4 VisualПрофиль формата : Advanced Simple@L5Параметр BVOP формата : 1Параметр QPel формата : НетПараметр GMC формата : Без точки переходаПараметр матрицы формата : ВыборочнаяИдентификатор кодека : XVIDИдентификатор кодека/Подсказка : XviDПродолжительность : 2 ч. 4 м.Битрейт : 705 Кбит/секШирина : 688 пикселейВысота : 288 пикселейСоотношение сторон : 2,40:1Частота кадров : 23,976 кадра/секЦветовое пространство : YUVСубдискретизация насыщенности : 4:2:0Битовая глубина : 8 битТип развёртки : ПрогрессивнаяМетод сжатия : С потерямиБит/(Пиксели*Кадры) : 0.148Размер потока : 629 Мбайт (84%)Библиотека кодирования : XviD 73
    АудиоИдентификатор : 1Формат : MPEG AudioВерсия формата : Version 1Профиль формата : Layer 3Идентификатор кодека : 55Идентификатор кодека/Подсказка : MP3Продолжительность : 2 ч. 4 м.Вид битрейта : ПостоянныйБитрейт : 128 Кбит/секКаналы : 2 каналаЧастота : 48,0 КГцМетод сжатия : С потерямиРазмер потока : 114 Мбайт (15%)Выравнивание : Соединение по промежуткамПродолжительность промежутка : 42 мс. (1,00 видеокадр)Время предзагрузки промежутка : 504 мс.Библиотека кодирования : LAME3.99rНастройки программы : -m s -V 4 -q 2 -lowpass 17 -b 128

    Скриншот c названием фильма

    Скриншоты


    Время раздачи - по возможности.
    Скачать .torrent

    Скачать торрент-файл бесплатно и на максимальной скорости!

    Как скачивать? · Что такое торрент? · Рейтинг и ограничения

    !ВНИМАНИЕ!
    Сайт не распространяет и не хранит электронные версии произведений, а занимается лишь лишь предоставлением доступа к создаваемому пользователями каталогу ссылок на торрент-файлы, которые содержат только списки хеш-сумм, убедительная просьба с жалобами обращаться напрямую к пользователю. Файлы для обмена на трекере предоставлены пользователями сайта, и администрация не несёт ответственности за их содержание. Просьба не заливать файлы, защищенные авторскими правами, а также файлы нелегального содержания!


    _________________
    [Профиль] [ЛС]
    Показать сообщения:    
    Ответить на тему

    Текущее время: Сегодня, в 08:15

    Часовой пояс: GMT + 2



    Вы не можете начинать темы
    Вы не можете отвечать на сообщения
    Вы не можете редактировать свои сообщения
    Вы не можете удалять свои сообщения
    Вы не можете голосовать в опросах
    Вы не можете прикреплять файлы к сообщениям
    Вы не можете скачивать файлы