BitTorrentTracker PerecTracker.org
BitTorrentTracker PerecTracker.org
    
Регистрация  ·  Вход
 
 · 
Забыли пароль?

  • [iPad] Полтергейст / Poltergeist (Гил Кинан / Gil Kenan ) [2015, США, Канада , Ужасы, триллер, WEB-DLRip, SD (576p)] [Extended Cut] DUB + Original + sub (rus, eng, ukr)

    Ответить на тему
     
    Автор Сообщение

    rechyn

    Создавать темы 08-Сен-2015 03:25

           

    [Цитировать]

    Полтергейст / Poltergeist
    (Extended Cut)

    «They know what scares you»
    5.004 / 10 5.00 / 10
    -Год выпуска: 2015
    Страна: США, Канада
    Жанр: Ужасы, триллер
    Продолжительность: 01:41:17
    Перевод: Дублированный (iTunes)
    Оригинальная аудиодорожка: Есть
    Cубтитры: Русские, Английские, Украинские
    Режиссёр: Гил Кинан
    Сценарий: Стивен Спилберг, Дэвид Линдси-Эбейр, Майкл Грэйс
    Продюсер: Натан Каан, Рой Ли, Сэм Рэйми
    Оператор: Хавьер Агирресаробе
    Композитор: Марк Стрейтенфелд
    Художник: Калина Иванов, Мартин Гендрон, Дэльфин Уайт
    Монтаж: Джефф Бетанкорт, Боб Муравски
    В ролях: Сэм Рокуэлл, Розмари ДеУитт, Саксон Шарбино, Кайл Кэтлетт, Кеннеди Клементс, Джаред Харрис, Джейн Адамс, Сьюзэн Хэйард, Николас Браун, Карен Ивани
    Бюджет: $35 000 000
    Сборы в США: $47 425 125
    Сборы в мире: + $48 210 406 = $95 635 531
    Сборы в России: $2 997 246
    Мировая премьера: 18 мая 2015
    Премьера (РФ): 18 июня 2015, «Двадцатый Век Фокс СНГ»
    Релиз на DVD:
    Релиз на Blu-Ray:
    Описание: Когда страшные призраки забирают младшую дочь, семье приходится объединиться, чтобы спасти ее…-Качество исходника: WEB-DL 1080p
    Качество: WEB-DLRip
    Тип: SD (576p)
    Контейнер: M4V
    Видео: H.264, 1024x432, 2.40:1, 2 200 Kbps, 23.976 fps
    Аудио 1: Русский/Дублированный (iTunes), AAC / 2.0 / 157 Kbps / 48.0 KHz
    Аудио 2: Английский/Оригинальная дорожка , AAC / 2.0 / 157 Kbps / 48.0 KHz
    Аудио 3: Украинский/Дублированный (iTunes), AAC / 2.0 / 158 Kbps / 48.0 KHz
    Субтитры 1: Русские полные
    Субтитры 2: Английские полные
    Субтитры 3: Украинские полные
    -

    iTunes Meta Tags

    Sort Name: Poltergeist (Extended Cut)
    XID: Apple:vendor_id:2015-313523
    contentID: 1012038888
    Screenwriters: Дэвид Линдси-Эбейр, Стивен Спилберг
    Producers: Натан Каан, Рой Ли, Сэм Рэйми
    Director: Гил Кинан
    Cast: Сэм Рокуэлл, Розмари ДеУитт, Саксон Шарбино, Кайл Кэтлетт, Кеннеди Клементс, Джаред Харрис, Джейн Адамс, Сьюзэн Хэйард, Николас Браун, Карен Ивани
    Studio: 20th Century Fox
    Rating: 131
    Long Description: Когда страшные призраки забирают младшую дочь, семье приходится объединиться, чтобы спасти ее...
    Description: Когда страшные призраки забирают младшую дочь, семье приходится объединиться, чтобы спасти ее...
    Release Date: 2015-05-18T08:00:00Z
    Genre: Horror
    Artist: Gil Kenan
    Name: Poltergeist (Extended Cut)

    MediaInfo

    General
    Complete name                            : /Users/imac/HandBrake/Poltergeist.(SD).(pk).m4v
    Format                                   : MPEG-4
    Codec ID                                 : M4V
    File size                                : 1.89 GiB
    Duration                                 : 1h 41mn
    Overall bit rate mode                    : Variable
    Overall bit rate                         : 2 678 Kbps
    Movie name                               : Poltergeist (Extended Cut)
    Performer                                : Gil Kenan
    Genre                                    : Horror
    Recorded date                            : UTC 2015-05-18 08:00:00
    Encoded date                             : UTC 2015-09-07 11:59:33
    Tagged date                              : UTC 2015-09-07 12:00:07
    Cover                                    : Yes
    sonm                                     : Poltergeist (Extended Cut)
    desc                                     : Когда страшные призраки забирают младшую дочь, семье приходится объединиться, чтобы спасти ее...
    ldes                                     : Когда страшные призраки забирают младшую дочь, семье приходится объединиться, чтобы спасти ее...
    stik                                     : 9
    rtng                                     : 0
    cnID                                     : 1012038888
    xid                                      : Apple:vendor_id:2015-313523
    iTunEXTC                                 : uk-movie|15|350|
    iTunMOVI                                 : <?xml version=\"1.0\" encoding=\"UTF-8\"?> / <!DOCTYPE plist PUBLIC \"-//Apple//DTD PLIST 1.0//EN\" \"http://anonym.to/?http://www.apple.com/DTDs/PropertyList-1.0.dtd\"> / <plist version=\"1.0\"> / <dict> /  <key>cast</key> /  <array> /   <dict> /    <key>name</key> /    <string>Сэм Рокуэлл</string> /   </dict> /   <dict> /    <key>name</key> /    <string>Розмари ДеУитт</string> /   </dict> /   <dict> /    <key>name</key> /    <string>Саксон Шарбино</string> /   </dict> /   <dict> /    <key>name</key> /    <string>Кайл Кэтлетт</string> /   </dict> /   <dict> /    <key>name</key> /    <string>Кеннеди Клементс</string> /   </dict> /   <dict> /    <key>name</key> /    <string>Джаред Харрис</string> /   </dict> /   <dict> /    <key>name</key> /    <string>Джейн Адамс</string> /   </dict> /   <dict> /    <key>name</key> /    <string>Сьюзэн Хэйард</string> /   </dict> /   <dict> /    <key>name</key> /    <string>Николас Браун</string> /   </dict> /   <dict> /    <key>name</key> /    <string>Карен Ивани</string> /   </dict> /  </array> /  <key>directors</key> /  <array> /   <dict> /    <key>name</key> /    <string>Гил Кинан</string> /   </dict> /  </array> /  <key>producers</key> /  <array> /   <dict> /    <key>name</key> /    <string>Натан Каан</string> /   </dict> /   <dict> /    <key>name</key> /    <string>Рой Ли</string> /   </dict> /   <dict> /    <key>name</key> /    <string>Сэм Рэйми</string> /   </dict> /  </array> /  <key>screenwriters</key> /  <array> /   <dict> /    <key>name</key> /    <string>Дэвид Линдси-Эбейр</string> /   </dict> /   <dict> /    <key>name</key> /    <string>Стивен Спилберг</string> /   </dict> /  </array> /  <key>studio</key> /  <string>20th Century Fox</string> / </dict> / </plist>
    Video #1
    ID                                       : 1
    Format                                   : AVC
    Format/Info                              : Advanced Video Codec
    Format profile                           : High@L3.1
    Format settings, CABAC                   : Yes
    Format settings, ReFrames                : 9 frames
    Codec ID                                 : avc1
    Codec ID/Info                            : Advanced Video Coding
    Duration                                 : 1h 41mn
    Bit rate mode                            : Variable
    Bit rate                                 : 2 200 Kbps
    Width                                    : 1 024 pixels
    Height                                   : 432 pixels
    Display aspect ratio                     : 2.40:1
    Frame rate mode                          : Variable
    Frame rate                               : 23.976 fps
    Minimum frame rate                       : 23.810 fps
    Maximum frame rate                       : 24.390 fps
    Color space                              : YUV
    Chroma subsampling                       : 4:2:0
    Bit depth                                : 8 bits
    Scan type                                : Progressive
    Bits/(Pixel*Frame)                       : 0.207
    Stream size                              : 1.56 GiB (82%)
    Writing library                          : x264 core 142 r2479 dd79a61
    Encoding settings                        : cabac=1 / ref=9 / deblock=1:0:0 / analyse=0x3:0x113 / me=umh / subme=9 / psy=1 / psy_rd=1.00:0.00 / mixed_ref=1 / me_range=32 / chroma_me=1 / trellis=1 / 8x8dct=1 / cqm=0 / deadzone=21,11 / fast_pskip=1 / chroma_qp_offset=-2 / threads=36 / lookahead_threads=3 / sliced_threads=0 / nr=0 / decimate=1 / interlaced=0 / bluray_compat=0 / constrained_intra=0 / bframes=6 / b_pyramid=2 / b_adapt=2 / b_bias=0 / direct=1 / weightb=1 / open_gop=0 / weightp=2 / keyint=240 / keyint_min=24 / scenecut=40 / intra_refresh=0 / rc_lookahead=40 / rc=2pass / mbtree=1 / bitrate=2200 / ratetol=1.0 / qcomp=0.60 / qpmin=0 / qpmax=69 / qpstep=4 / cplxblur=20.0 / qblur=0.5 / ip_ratio=1.40 / aq=1:1.00
    Language                                 : English
    Encoded date                             : UTC 2015-09-07 11:59:33
    Tagged date                              : UTC 2015-09-07 11:59:38
    Color primaries                          : BT.709-5, BT.1361, IEC 61966-2-4, SMPTE RP177
    Transfer characteristics                 : BT.709-5, BT.1361
    Matrix coefficients                      : BT.709-5, BT.1361, IEC 61966-2-4 709, SMPTE RP177
    Video #2
    ID                                       : 9
    Format                                   : JPEG
    Codec ID                                 : jpeg
    Duration                                 : 1h 41mn
    Bit rate mode                            : Variable
    Bit rate                                 : 955 bps
    Width                                    : 640 pixels
    Height                                   : 270 pixels
    Display aspect ratio                     : 2.40:1
    Frame rate mode                          : Variable
    Frame rate                               : 0.004 fps
    Minimum frame rate                       : 0.003 fps
    Maximum frame rate                       : 0.008 fps
    Color space                              : YUV
    Chroma subsampling                       : 4:2:0
    Bit depth                                : 8 bits
    Compression mode                         : Lossy
    Bits/(Pixel*Frame)                       : 1.382
    Stream size                              : 699 KiB (0%)
    Language                                 : English
    Encoded date                             : UTC 2015-09-07 11:59:44
    Tagged date                              : UTC 2015-09-07 11:59:45
    Audio #1
    ID                                       : 2
    Format                                   : AAC
    Format/Info                              : Advanced Audio Codec
    Format profile                           : LC
    Codec ID                                 : 40
    Duration                                 : 1h 40mn
    Bit rate mode                            : Variable
    Bit rate                                 : 157 Kbps
    Maximum bit rate                         : 239 Kbps
    Channel(s)                               : 2 channels
    Channel positions                        : Front: L R
    Sampling rate                            : 48.0 KHz
    Compression mode                         : Lossy
    Stream size                              : 113 MiB (6%)
    Language                                 : Russian
    Encoded date                             : UTC 2015-09-07 11:59:33
    Tagged date                              : UTC 2015-09-07 11:59:39
    Audio #2
    ID                                       : 3
    Format                                   : AAC
    Format/Info                              : Advanced Audio Codec
    Format profile                           : LC
    Codec ID                                 : 40
    Duration                                 : 1h 40mn
    Bit rate mode                            : Variable
    Bit rate                                 : 157 Kbps
    Maximum bit rate                         : 235 Kbps
    Channel(s)                               : 2 channels
    Channel positions                        : Front: L R
    Sampling rate                            : 48.0 KHz
    Compression mode                         : Lossy
    Stream size                              : 113 MiB (6%)
    Language                                 : English
    Encoded date                             : UTC 2015-09-07 11:59:33
    Tagged date                              : UTC 2015-09-07 11:59:39
    Audio #3
    ID                                       : 4
    Format                                   : AAC
    Format/Info                              : Advanced Audio Codec
    Format profile                           : LC
    Codec ID                                 : 40
    Duration                                 : 1h 40mn
    Bit rate mode                            : Variable
    Bit rate                                 : 158 Kbps
    Maximum bit rate                         : 256 Kbps
    Channel(s)                               : 2 channels
    Channel positions                        : Front: L R
    Sampling rate                            : 48.0 KHz
    Compression mode                         : Lossy
    Stream size                              : 114 MiB (6%)
    Language                                 : Ukrainian
    Encoded date                             : UTC 2015-09-07 11:59:33
    Tagged date                              : UTC 2015-09-07 11:59:39
    Text #1
    ID                                       : 5
    Format                                   : Timed text
    Muxing mode                              : sbtl
    Codec ID                                 : tx3g
    Duration                                 : 1h 40mn
    Bit rate mode                            : Variable
    Bit rate                                 : 81 bps
    Stream size                              : 60.0 KiB (0%)
    Language                                 : Russian
    Encoded date                             : UTC 2015-09-07 11:59:33
    Tagged date                              : UTC 2015-09-07 11:59:39
    Text #2
    ID                                       : 6
    Format                                   : Timed text
    Muxing mode                              : sbtl
    Codec ID                                 : tx3g
    Duration                                 : 1h 36mn
    Bit rate mode                            : Variable
    Bit rate                                 : 57 bps
    Stream size                              : 40.1 KiB (0%)
    Language                                 : English
    Encoded date                             : UTC 2015-09-07 11:59:33
    Tagged date                              : UTC 2015-09-07 11:59:39
    Text #3
    ID                                       : 7
    Format                                   : Timed text
    Muxing mode                              : sbtl
    Codec ID                                 : tx3g
    Duration                                 : 1h 40mn
    Bit rate mode                            : Variable
    Bit rate                                 : 85 bps
    Stream size                              : 62.8 KiB (0%)
    Language                                 : Ukrainian
    Encoded date                             : UTC 2015-09-07 11:59:33
    Tagged date                              : UTC 2015-09-07 11:59:39
    Text #4
    ID                                       : 8
    Format                                   : Apple text
    Codec ID                                 : text
    Duration                                 : 1h 41mn
    Bit rate mode                            : Variable
    Bit rate                                 : 0 bps
    Stream size                              : 375 Bytes (0%)
    Language                                 : English
    Encoded date                             : UTC 2015-09-07 11:59:39
    Tagged date                              : UTC 2015-09-07 11:59:39
    Menu
    00:00:00.000                             : 1
    00:04:51.000                             : 2
    00:09:49.000                             : 3
    00:16:20.000                             : 4
    00:20:25.000                             : 5
    00:22:27.000                             : 6
    00:26:24.000                             : 7
    00:29:54.000                             : 8
    00:34:58.000                             : 9
    00:37:20.000                             : 10
    00:41:33.000                             : 11
    00:46:46.000                             : 12
    00:49:48.000                             : 13
    00:53:32.000                             : 14
    00:59:59.000                             : 15
    01:04:19.000                             : 16
    01:06:33.000                             : 17
    01:09:30.000                             : 18
    01:12:27.000                             : 19
    01:15:56.000                             : 20
    01:19:26.000                             : 21
    01:25:12.000                             : 22
    01:29:45.000                             : 23
    01:34:50.000                             : 24

    x264 лог

    x264 [info]: frame I:1109  Avg QP:10.95  size: 67144
    x264 [info]: frame P:40358 Avg QP:13.82  size: 21742
    x264 [info]: frame B:104252 Avg QP:15.83  size:  6888
    x264 [info]: consecutive B-frames:  3.7%  5.0% 10.0% 62.2%  8.1%  8.5%  2.5%
    x264 [info]: mb I  I16..4: 10.9% 69.0% 20.1%
    x264 [info]: mb P  I16..4:  2.1% 10.1%  2.6%  P16..4: 32.5% 27.9% 17.3%  0.0%  0.0%    skip: 7.5%
    x264 [info]: mb B  I16..4:  0.2%  1.0%  0.3%  B16..8: 35.3% 13.9%  3.7%  direct: 6.1%  skip:39.6%  L0:42.7% L1:45.0% BI:12.4%
    x264 [info]: 8x8 transform intra:67.8% inter:70.1%
    x264 [info]: coded y,uvDC,uvAC intra: 83.7% 92.8% 81.7% inter: 27.1% 31.7% 9.6%
    x264 [info]: i16 v,h,dc,p: 27% 14%  6% 53%
    x264 [info]: i8 v,h,dc,ddl,ddr,vr,hd,vl,hu: 12% 11%  7%  9% 12% 12% 12% 12% 14%
    x264 [info]: i4 v,h,dc,ddl,ddr,vr,hd,vl,hu: 11% 17%  3%  9% 13% 12% 12% 10% 13%
    x264 [info]: i8c dc,h,v,p: 44% 23% 19% 15%
    x264 [info]: Weighted P-Frames: Y:6.7% UV:5.4%
    x264 [info]: ref P L0: 52.2%  6.8% 17.2%  7.1%  5.3%  4.0%  3.2%  1.9%  1.9%  0.5%  0.1%
    x264 [info]: ref B L0: 73.2% 12.3%  5.7%  2.9%  2.2%  1.9%  1.4%  0.4%
    x264 [info]: ref B L1: 93.6%  6.4%
    x264 [info]: kb/s:2198.25

    Скриншоты

    -

    Релиз подготовлен для просмотра на Apple TV, iPad, iPhone, iPod Touch.
    Для просмотра данного релиза на компьютере с ОС Windows рекомендуется использовать VLC media player
    Скачать .torrent

    Скачать торрент-файл бесплатно и на максимальной скорости!

    Как скачивать? · Что такое торрент? · Рейтинг и ограничения

    !ВНИМАНИЕ!
    Сайт не распространяет и не хранит электронные версии произведений, а занимается лишь лишь предоставлением доступа к создаваемому пользователями каталогу ссылок на торрент-файлы, которые содержат только списки хеш-сумм, убедительная просьба с жалобами обращаться напрямую к пользователю. Файлы для обмена на трекере предоставлены пользователями сайта, и администрация не несёт ответственности за их содержание. Просьба не заливать файлы, защищенные авторскими правами, а также файлы нелегального содержания!


    _________________
    [Профиль] [ЛС]
    Показать сообщения:    
    Ответить на тему

    Текущее время: Сегодня, в 22:28

    Часовой пояс: GMT + 2



    Вы не можете начинать темы
    Вы не можете отвечать на сообщения
    Вы не можете редактировать свои сообщения
    Вы не можете удалять свои сообщения
    Вы не можете голосовать в опросах
    Вы не можете прикреплять файлы к сообщениям
    Вы не можете скачивать файлы