BitTorrentTracker PerecTracker.org
BitTorrentTracker PerecTracker.org
    
Регистрация  ·  Вход
 
 · 
Забыли пароль?

  • Дорога, усыпанная розами / Put ružama posut / The Path strewh with roses (Марко Новакович / Marko Novakovic) [2013 г., Сербия, Исторический, DVDRip] MVO + Sub + original

    Ответить на тему
     
    Автор Сообщение

    Light

    Создавать темы 07-Сен-2015 14:49

           

    [Цитировать]

    Дорога, усыпанная розами / Put ružama posut / The Path strewh with roses
    Страна: Сербия
    Жанр: Исторический
    Год выпуска: 2013
    Продолжительность: 00:53:40
    Перевод: Любительский (многоголосый закадровый) - Колобок
    Перевод 2: Субтитры - Майя Станимирович
    Cубтитры: русские
    Оригинальная аудиодорожка: сербский
    Режиссер: Марко Новакович / Marko Novakovic
    В ролях: Весна Станоевич, Таня Бошкович, Драган Мичанович, Иван Евтович, Милан Михайлович
    Описание: Фильм рассказывает историю жизни сербской принцессы Оливеры Лазаревич, младшей дочери князя Лазаря и княгини Милицы. После битвы на Косовом поле она по условиям договора была отдана в 1391 году в гарем султана Баязида I, убийце её отца.
    По легенде, когда Оливера Лазаревич уезжала к туркам, дорога из родного Крушеваца до гарема Баязида I в Эдирне была усыпана лепестками роз, в Сербии все понимали и принимали её жертву. Оливере, однако, удалось не только выжить в гареме, но с достоинством вернуться обратно.
    Роли озвучивали: den904, DeadSno, North.
    Сэмпл: https://www.sendspace.com/file/sfwisp
    Качество видео: DVDRip
    Формат видео: AVI
    Видео: 1560 Кбит/сек, 720*416 (1,731), 25,000 кадров/сек, XviD
    Аудио: Русский, 128 Кбит/сек, 48,0 КГц, 2 канала, MP3
    Аудио 2: Сербский, 128 Кбит/сек, 48,0 КГц, 2 канала, MP3
    Формат субтитров: softsub (SRT)

    MediaInfo

    ОбщееПолное имя : N:\MONAR.RU\Художественные фильмы\Зарубежное кино\Дорога, усыпанная розами (2013) DVDRip\Дорога, усыпанная розами (2013).aviФормат : AVIФормат/Информация : Audio Video InterleaveРазмер файла : 703 МбайтПродолжительность : 53 м.Общий поток : 1831 Кбит/сек
    ВидеоИдентификатор : 0Формат : MPEG-4 VisualПрофиль формата : Advanced Simple@L5Параметр BVOP формата : 1Параметр QPel формата : НетПараметр GMC формата : Без точки переходаПараметр матрицы формата : ВыборочнаяИдентификатор кодека : XVIDИдентификатор кодека/Подсказка : XviDПродолжительность : 53 м.Битрейт : 1560 Кбит/секШирина : 720 пикселейВысота : 416 пикселейСоотношение сторон : 1,731Частота кадров : 25,000 кадров/секЦветовое пространство : YUVСубдискретизация насыщенности : 4:2:0Битовая глубина : 8 битТип развёртки : ПрогрессивнаяМетод сжатия : С потерямиБит/(Пиксели*Кадры) : 0.208Размер потока : 599 Мбайт (85%)Библиотека кодирования : XviD 1.2.1 (UTC 2008-12-04)
    Аудио #1Идентификатор : 1Формат : MPEG AudioВерсия формата : Version 1Профиль формата : Layer 3Идентификатор кодека : 55Идентификатор кодека/Подсказка : MP3Продолжительность : 53 м.Продолжительность оригинала : 53 м.Вид битрейта : ПостоянныйБитрейт : 128 Кбит/секКаналы : 2 каналаЧастота : 48,0 КГцМетод сжатия : С потерямиРазмер потока : 49,1 Мбайт (7%)Выравнивание : Соединение по промежуткамПродолжительность промежутка : 40 мс. (1,00 видеокадр)Библиотека кодирования : LAMEUU№юб
    Аудио #2Идентификатор : 2Формат : MPEG AudioВерсия формата : Version 1Профиль формата : Layer 3Идентификатор кодека : 55Идентификатор кодека/Подсказка : MP3Продолжительность : 53 м.Продолжительность оригинала : 53 м.Вид битрейта : ПостоянныйБитрейт : 128 Кбит/секКаналы : 2 каналаЧастота : 48,0 КГцМетод сжатия : С потерямиРазмер потока : 49,1 Мбайт (7%)Выравнивание : Соединение по промежуткамПродолжительность промежутка : 40 мс. (1,00 видеокадр)

    Скриншот c названием фильма

    Скриншоты

    Скачать .torrent

    Скачать торрент-файл бесплатно и на максимальной скорости!

    Как скачивать? · Что такое торрент? · Рейтинг и ограничения

    !ВНИМАНИЕ!
    Сайт не распространяет и не хранит электронные версии произведений, а занимается лишь лишь предоставлением доступа к создаваемому пользователями каталогу ссылок на торрент-файлы, которые содержат только списки хеш-сумм, убедительная просьба с жалобами обращаться напрямую к пользователю. Файлы для обмена на трекере предоставлены пользователями сайта, и администрация не несёт ответственности за их содержание. Просьба не заливать файлы, защищенные авторскими правами, а также файлы нелегального содержания!


    _________________
    [Профиль] [ЛС]
    Показать сообщения:    
    Ответить на тему

    Текущее время: Сегодня, в 12:37

    Часовой пояс: GMT + 2



    Вы не можете начинать темы
    Вы не можете отвечать на сообщения
    Вы не можете редактировать свои сообщения
    Вы не можете удалять свои сообщения
    Вы не можете голосовать в опросах
    Вы не можете прикреплять файлы к сообщениям
    Вы не можете скачивать файлы