BitTorrentTracker PerecTracker.org
BitTorrentTracker PerecTracker.org
    
Регистрация  ·  Вход
 
 · 
Забыли пароль?

  • Сын другой женщины / The Other Son (Лоррэйн Леви / Lorraine Levy) [2012, Франция, драма, HDRip] MVO (SOUND-GROUP)

    Ответить на тему
     
    Автор Сообщение

    Light

    Создавать темы 07-Сен-2015 14:49

           

    [Цитировать]

    Сын другой женщины / The Other Son
    Страна: Франция
    Жанр: драма
    Год выпуска: 2012
    Продолжительность: 01:45:19
    Перевод: Любительский (многоголосый закадровый) SOUND-GROUP
    Cубтитры: нет
    Оригинальная аудиодорожка: нет
    Режиссер: Лоррэйн Леви / Lorraine Levy-В ролях: Эммануэль Дево, Паскаль Элбе, Жюль Ситрук, Мехди Дехби, Арин Омари, Халифа Натур, Махмуд Шалаби-Описание: Два юноши: еврей и араб. Две семьи, чьи судьбы неожиданным образом не просто пересекутся, а сплетутся в тугой узел. 18-летний Жозеф живёт в пригороде Тель-Авива с родителями - родившейся во Франции психологом Орит и высокопоставленным военным Алоном - и собирается на службу в израильскую армию. Анализ крови при прохождении медосмотра выявляет, что Жозеф не является биологическим сыном своих родителей. При расследовании выясняется, что во время эвакуации роддома младенца из палестинской семьи перепутали с ребенком из еврейской семьи. В ужасе от этих новостей и вторая семья - Саид и Лейла, живущие на Западном Берегу реки Иордан, а также их старший сын Билал, который готов порвать все отношения с младшим братом из-за его еврейской крови.
    «Можно считать, что мы провели этим фильмом дерзкий социальный эксперимент, – комментирует режиссёр Лоррейн Леви. – Обе семьи, и еврейская, и арабская, вынуждены пересмотреть взгляды на жизнь и по-новому оценить бытующие национальные предрассудки. Люди обычно боятся задумываться над тем, что может нарушить привычный жизненный уклад. Так легче жить. И только критическая ситуация, подобная той, в которую попадают герои нашего фильма, способна взорвать мнимое спокойствие. По жанру наш фильм – комедийная драма, по смыслу – геополитическая сказка с хорошим финалом. Люди, преодолевая стародавний страх, подозрительность и предубеждения, протягивают друг другу руки. Может быть, поэтому фильм так тепло принимают в разных странах – от Бразилии до Японии, от Франции до Австралии."
    Невероятно чувственный и в то же время интеллектуальный фильм, получивший гран-при Токийского кинофестиваля (2012), а также награду за режиссёрскую работу.-Доп.информация: озвучено по заказу olessia80-Качество видео: HDRip
    Формат видео: AVI
    Видео: MPEG4, 720x304, 23,976 кадра/сек, 1694 Кбит/сек
    Аудио: 48,0 КГц, 2 канала, 192 Кбит/сек, MPEG Audio (MP3), язык русский (в составе контейнера)
    Перевод: Олеся Варнавиду
    Озвучка: Hunter26, Sashi Sutangu, Kedra, Wenlana @SOUND-GROUP

    MediaInfo

    Формат : AVI
    Формат/Информация : Audio Video Interleave
    Размер файла : 1,39 Гбайт
    Продолжительность : 1 ч. 45 м.
    Общий поток : 1896 Кбит/сек
    Программа кодирования : VirtualDubMod 1.5.10.2 (build 2542/release)
    Библиотека кодирования : VirtualDubMod build 2542/release
    Видео
    Идентификатор : 0
    Формат : MPEG-4 Visual
    Профиль формата : Advanced Simple@L5
    Параметр BVOP формата : 2
    Параметр QPel формата : Нет
    Параметр GMC формата : Без точки перехода
    Параметр матрицы формата : Default (MPEG)
    Идентификатор кодека : DX50
    Идентификатор кодека/Подсказка : DivX 5
    Продолжительность : 1 ч. 45 м.
    Битрейт : 1694 Кбит/сек
    Ширина : 720 пикселей
    Высота : 304 пикселя
    Соотношение сторон : 2,35:1
    Частота кадров : 23,976 кадра/сек
    Цветовое пространство : YUV
    Субдискретизация насыщенности : 4:2:0
    Битовая глубина : 8 бит
    Тип развёртки : Прогрессивная
    Метод сжатия : С потерями
    Бит/(Пиксели*Кадры) : 0.323
    Размер потока : 1,25 Гбайт (89%)
    Библиотека кодирования : XviD 73
    Аудио
    Идентификатор : 1
    Формат : MPEG Audio
    Версия формата : Version 1
    Профиль формата : Layer 3
    Режим : Joint stereo
    Идентификатор кодека : 55
    Идентификатор кодека/Подсказка : MP3
    Продолжительность : 1 ч. 45 м.
    Вид битрейта : Постоянный
    Битрейт : 192 Кбит/сек
    Каналы : 2 канала
    Частота : 48,0 КГц
    Метод сжатия : С потерями
    Размер потока : 145 Мбайт (10%)
    Выравнивание : Соединение по промежуткам
    Продолжительность промежутка : 42 мс. (1,00 видеокадр)

    Скриншот c названием фильма

    Скриншоты

    Отличия

    http://perectracker.org/viewtopic.php?t=4502174 - другой формат видео, многоголосая озвучка
    Скачать .torrent

    Скачать торрент-файл бесплатно и на максимальной скорости!

    Как скачивать? · Что такое торрент? · Рейтинг и ограничения

    !ВНИМАНИЕ!
    Сайт не распространяет и не хранит электронные версии произведений, а занимается лишь лишь предоставлением доступа к создаваемому пользователями каталогу ссылок на торрент-файлы, которые содержат только списки хеш-сумм, убедительная просьба с жалобами обращаться напрямую к пользователю. Файлы для обмена на трекере предоставлены пользователями сайта, и администрация не несёт ответственности за их содержание. Просьба не заливать файлы, защищенные авторскими правами, а также файлы нелегального содержания!


    _________________
    [Профиль] [ЛС]

    vladrib

    Создавать темы 01-Окт-2015 13:51 (спустя 23 дня)

           

    [Цитировать]

    очень хороший фильм, действительно, невероятно чувственный и в то же время интеллектуальный... рекомендую к просмотру
    [Профиль] [ЛС]
    Показать сообщения:    
    Ответить на тему

    Текущее время: Сегодня, в 14:27

    Часовой пояс: GMT + 2



    Вы не можете начинать темы
    Вы не можете отвечать на сообщения
    Вы не можете редактировать свои сообщения
    Вы не можете удалять свои сообщения
    Вы не можете голосовать в опросах
    Вы не можете прикреплять файлы к сообщениям
    Вы не можете скачивать файлы