BitTorrentTracker PerecTracker.org
BitTorrentTracker PerecTracker.org
    
Регистрация  ·  Вход
 
 · 
Забыли пароль?

  • Тёмная материя / Dark Matter / Сезон: 1 / Серии: 1-13 из 13 (Рон Мерфи, Т.Дж. Скотт, Паоло Барзмен) [2015, фантастика, WEB-DLRip] MVO (BaibaKo)

    Ответить на тему
     
    Автор Сообщение

    rechyn

    Создавать темы 07-Сен-2015 13:36

           

    [Цитировать]

    -Тёмная материя | Dark Matter-Год выпуска: 2015
    Страна: США
    Жанр: фантастика
    Продолжительность: ~ 00:43:00-Перевод: Профессиональный (многоголосый закадровый) | BaibaKo-Режиссёр: Рон Мерфи, Т.Дж. Скотт, Паоло Барзмен-В ролях: Марк Бендавид, Мелисса О’Нил, Энтони Лемке, Алекс Маллари мл., Джоделль Ферланд, Роджер Р. Кросс, Зои Палмер, Дэвид Хьюлетт, Джессика Сайпос, Расселл Юэнь-Описание: Экипаж заброшенного космического корабля пробуждается от анабиоза, без воспоминаний о том, кто они и как они поднялись на борт. Сталкиваясь с угрозами на каждом шагу, они должны работать вместе, чтобы выжить. Их путешествие наполнено местью, предательством и скрытыми тайнами.--Сэмпл-Качество: WEB-DLRip
    Формат: AVI
    Видео: XviD, 720x400 (16:9), 23,976 fps, ~1500 kbps
    Аудио 1: MP3, 48 kHz, 2 ch, 192 kbps - Rus
    Аудио 2: MP3, 48 kHz, 2 ch, 192 kbps - Eng
    Субтитры: отсутствуют-Рекламный ролик вырезан

    Релиз

    Перевод: Янина Галицкая
    Озвучка: Елена Григорьева, Юлия Котурбаш, Олекса Мельник и Артемий Мирон
    Монтаж: Виталий Мартыняк

    MediaInfo

    Полное имя : X:\ATorrent\Dark Matter (S01) BaibaKo\Dark.Matter.s01e01.WEB-DLRip.XviD.Rus.Eng.BaibaKo.avi
    Формат : AVI
    Формат/Информация : Audio Video Interleave
    Размер файла : 590 Мбайт
    Продолжительность : 43 м.
    Общий поток : 1914 Кбит/сек
    Программа кодирования : VirtualDubMod 1.5.10.3 | www.virtualdub-fr.org || (build 2550/release)
    Библиотека кодирования : VirtualDubMod build 2550/release
    Видео
    Идентификатор : 0
    Формат : MPEG-4 Visual
    Профиль формата : Advanced Simple@L5
    Параметр BVOP формата : 2
    Параметр QPel формата : Нет
    Параметр GMC формата : Без точки перехода
    Параметр матрицы формата : Default (MPEG)
    Идентификатор кодека : XVID
    Идентификатор кодека/Подсказка : XviD
    Продолжительность : 43 м.
    Битрейт : 1516 Кбит/сек
    Ширина : 720 пикселей
    Высота : 400 пикселей
    Соотношение сторон : 16:9
    Частота кадров : 23,976 кадра/сек
    Цветовое пространство : YUV
    Субдискретизация насыщенности : 4:2:0
    Битовая глубина : 8 бит
    Тип развёртки : Прогрессивная
    Метод сжатия : С потерями
    Бит/(Пиксели*Кадры) : 0.220
    Размер потока : 467 Мбайт (79%)
    Библиотека кодирования : XviD 73
    Аудио #1
    Идентификатор : 1
    Формат : MPEG Audio
    Версия формата : Version 1
    Профиль формата : Layer 3
    Режим : Joint stereo
    Расширение режима : MS Stereo
    Идентификатор кодека : 55
    Идентификатор кодека/Подсказка : MP3
    Продолжительность : 43 м.
    Вид битрейта : Постоянный
    Битрейт : 192 Кбит/сек
    Каналы : 2 канала
    Частота : 48,0 КГц
    Метод сжатия : С потерями
    Размер потока : 59,2 Мбайт (10%)
    Выравнивание : Соединение по промежуткам
    Продолжительность промежутка : 42 мс. (1,00 видеокадр)
    Время предзагрузки промежутка : 504 мс.
    Аудио #2
    Идентификатор : 2
    Формат : MPEG Audio
    Версия формата : Version 1
    Профиль формата : Layer 3
    Режим : Joint stereo
    Расширение режима : MS Stereo
    Идентификатор кодека : 55
    Идентификатор кодека/Подсказка : MP3
    Продолжительность : 43 м.
    Вид битрейта : Постоянный
    Битрейт : 192 Кбит/сек
    Каналы : 2 канала
    Частота : 48,0 КГц
    Метод сжатия : С потерями
    Размер потока : 59,2 Мбайт (10%)
    Выравнивание : Соединение по промежуткам
    Продолжительность промежутка : 42 мс. (1,00 видеокадр)
    Время предзагрузки промежутка : 504 мс.

    Скриншоты

    Скачать .torrent

    Скачать торрент-файл бесплатно и на максимальной скорости!

    Как скачивать? · Что такое торрент? · Рейтинг и ограничения

    !ВНИМАНИЕ!
    Сайт не распространяет и не хранит электронные версии произведений, а занимается лишь лишь предоставлением доступа к создаваемому пользователями каталогу ссылок на торрент-файлы, которые содержат только списки хеш-сумм, убедительная просьба с жалобами обращаться напрямую к пользователю. Файлы для обмена на трекере предоставлены пользователями сайта, и администрация не несёт ответственности за их содержание. Просьба не заливать файлы, защищенные авторскими правами, а также файлы нелегального содержания!


    _________________
    [Профиль] [ЛС]
    Показать сообщения:    
    Ответить на тему

    Текущее время: Сегодня, в 06:06

    Часовой пояс: GMT + 2



    Вы не можете начинать темы
    Вы не можете отвечать на сообщения
    Вы не можете редактировать свои сообщения
    Вы не можете удалять свои сообщения
    Вы не можете голосовать в опросах
    Вы не можете прикреплять файлы к сообщениям
    Вы не можете скачивать файлы