BitTorrentTracker PerecTracker.org
BitTorrentTracker PerecTracker.org
    
Регистрация  ·  Вход
 
 · 
Забыли пароль?

  • И шарик вернется / Серии: 1-8 из 8 (Валерий Девятилов) [2015, Мелодрама, HDTVRip]

    Ответить на тему
     
    Автор Сообщение

    rechyn

    Создавать темы 07-Сен-2015 13:17

           

    [Цитировать]

    И шарик вернется
    Год выпуска: 2015
    Производство: Россия, Кинокомпания "Русское"
    Жанр: Мелодрама
    Продолжительность: 00:46:00
    Субтитры: нет
    Режиссер: Валерий Девятилов
    В ролях: Татьяна Космачёва, Полина Филоненко, Олеся Фаттахова, Юлия Юрченко, Екатерина Травова, Павел Кузьмин, Наталья Муравьевская, Елена Лотова, Родион Галюченко, Дмитрий Зеничев, Дмитрий Мазуров, Владимир Колганов, Денис Юченков, Иван Иванов (V), Елизавета Зарубина, Александр Лапига, Наргиля Терещенко, Сергей Походаев, Борис Хвошнянский, Павел Вишняков, Владимир Кошеваров, Юлия Яблонская, Наталья Коренная, Елена Старостина (II), Ирина Чипиженко, Ирина Пономарёва, Аля Никулина, Вячеслав Буцков, Александр Вершинин, Владимир Верёвочкин, Станислав Костецкий, Зураб Миминошвили, Татьяна Пискарёва
    Описание: Таня, Вера, Шура и Светик — одноклассницы и закадычные подруги. Непохожие друг на друга, но всюду неразлучные девчонки, кажется, и по жизни пойдут рука об руку. Но на школьном выпускном происходит страшное событие, вдребезги разбившее радужные мечты о светлом и счастливом мире. Спасая подругу Шуру от хулиганов, Тане не удается уберечься самой, и девушку ......... Подруги не приходят ей на помощь — каждая оказывается увлечена своими делами. После произошедшей трагедии дружба распадается, как карточный домик — Таня не может простить предательства, хочет забыть прошлое и начать жизнь с чистого листа. Девушкам предстоит пройти немало испытаний, переоценить свои поступки и научиться прощать, прежде чем обрести свой путь, найти счастье, и понять, что они связаны судьбой…
    Релиз группа
    Качество: HDTVRip
    Формат: AVI
    Видео кодек: XviD
    Аудио кодек: AC3
    Видео: 720x400 (1.80:1), 25 fps, XviD build 73 ~1599 kbps avg, 0.22 bit/pixel
    Аудио: 48 kHz, AC3 Dolby Digital, 2/0 (L,R) ch, ~192.00 kbps avg
    Семпл

    MI

    General
    Complete name : Y:\раздачи\I.sharik.vernetsia..2015.HDTVRip.Files-x.I.sharik.vernetsia..2015.HDTVRip.Files-x.avi
    Format : AVI
    Format/Info : Audio Video Interleave
    File size : 599 MiB
    Duration : 45mn 11s
    Overall bit rate : 1 854 Kbps
    Writing application : VirtualDubMod 1.5.10.3 | www.virtualdub-fr.org || (build 2550/release)
    Writing library : VirtualDubMod build 2550/release
    Video
    ID : 0
    Format : MPEG-4 Visual
    Format profile : Advanced Simple@L5
    Format settings, BVOP : 1
    Format settings, QPel : No
    Format settings, GMC : No warppoints
    Format settings, Matrix : Custom
    Codec ID : XVID
    Codec ID/Hint : XviD
    Duration : 45mn 11s
    Bit rate : 1 652 Kbps
    Width : 720 pixels
    Height : 400 pixels
    Display aspect ratio : 16:9
    Frame rate : 25.000 fps
    Color space : YUV
    Chroma subsampling : 4:2:0
    Bit depth : 8 bits
    Scan type : Progressive
    Compression mode : Lossy
    Bits/(Pixel*Frame) : 0.229
    Stream size : 534 MiB (89%)
    Writing library : XviD 73
    Audio
    ID : 1
    Format : AC-3
    Format/Info : Audio Coding 3
    Mode extension : CM (complete main)
    Format settings, Endianness : Big
    Codec ID : 2000
    Duration : 45mn 11s
    Bit rate mode : Constant
    Bit rate : 192 Kbps
    Channel(s) : 2 channels
    Channel positions : Front: L R
    Sampling rate : 48.0 KHz
    Compression mode : Lossy
    Stream size : 62.1 MiB (10%)
    Alignment : Split accross interleaves
    Interleave, duration : 40 ms (1.00 video frame)
    Interleave, preload duratio : 500 ms

    Скриншоты

    Скачать .torrent

    Скачать торрент-файл бесплатно и на максимальной скорости!

    Как скачивать? · Что такое торрент? · Рейтинг и ограничения

    !ВНИМАНИЕ!
    Сайт не распространяет и не хранит электронные версии произведений, а занимается лишь лишь предоставлением доступа к создаваемому пользователями каталогу ссылок на торрент-файлы, которые содержат только списки хеш-сумм, убедительная просьба с жалобами обращаться напрямую к пользователю. Файлы для обмена на трекере предоставлены пользователями сайта, и администрация не несёт ответственности за их содержание. Просьба не заливать файлы, защищенные авторскими правами, а также файлы нелегального содержания!


    _________________
    [Профиль] [ЛС]
    Показать сообщения:    
    Ответить на тему

    Текущее время: Сегодня, в 06:53

    Часовой пояс: GMT + 2



    Вы не можете начинать темы
    Вы не можете отвечать на сообщения
    Вы не можете редактировать свои сообщения
    Вы не можете удалять свои сообщения
    Вы не можете голосовать в опросах
    Вы не можете прикреплять файлы к сообщениям
    Вы не можете скачивать файлы