Register  ·  Log in
Forgot password?

  • Нарушение правил / Сезон: 1 / Серии: 1-4 из 4 (Леонид Мазор) [2015, Мелодрама, SATRip]

    Reply to topic
    Author Message


    Post 07-Sep-2015 13:34



    Нарушение правилГод выпуска: 2015
    Производство: Марс Медиа Энтертейнмент
    Жанр: Мелодрама
    Продолжительность серии: ~00:44:00
    Субтитры: нет
    Режиссёр: Леонид Мазор
    В ролях: Ингрид Олеринская, Софья Хилькова, Евгения Дмитриева, Роман Полянский, Игорь Бочкин, Любовь Германова, Александр Макогон, Наталья Варнакова, Иван Жвакин, Юлия Ауг, Григорий Багров, Мария Хижняк, Сергей Гузеев, Артём Лысков и др.
    Описание: Это история «Золушки» наоборот — богатой девушки, попавшей с бала в дом бедняка. Вере 20 лет, она дочка богатых родителей, но волею случая ей приходится на месяц стать... домработницей у простой школьной учительницы.
    Релиз группа
    Качество: SATRip
    Формат: AVI
    Видео кодек: XviD
    Аудио кодек: AC3
    Видео: 720x400 (1.80:1), 25 fps, XviD build 73 ~1548 kbps avg, 0.22 bit/pixel
    Аудио: 48 kHz, AC3 Dolby Digital, 2/0 (L,R) ch, ~192.00 kbps avg


    Complete name : D:\раздачи\Narushenie.pravil.2015.SATRip.Files-x.Narushenie.pravil.2015.SATRip.Files-x.avi
    Format : AVI
    Format/Info : Audio Video Interleave
    File size : 550 MiB
    Duration : 43mn 40s
    Overall bit rate : 1 762 Kbps
    Writing application : VirtualDubMod | || (build 2550/release)
    Writing library : VirtualDubMod build 2550/release
    ID : 0
    Format : MPEG-4 Visual
    Format profile : Advanced Simple@L5
    Format settings, BVOP : 1
    Format settings, QPel : No
    Format settings, GMC : No warppoints
    Format settings, Matrix : Custom
    Codec ID : XVID
    Codec ID/Hint : XviD
    Duration : 43mn 40s
    Bit rate : 1 560 Kbps
    Width : 720 pixels
    Height : 400 pixels
    Display aspect ratio : 16:9
    Frame rate : 25.000 fps
    Color space : YUV
    Chroma subsampling : 4:2:0
    Bit depth : 8 bits
    Scan type : Progressive
    Compression mode : Lossy
    Bits/(Pixel*Frame) : 0.217
    Stream size : 487 MiB (89%)
    Writing library : XviD 73
    ID : 1
    Format : AC-3
    Format/Info : Audio Coding 3
    Mode extension : CM (complete main)
    Format settings, Endianness : Big
    Codec ID : 2000
    Duration : 43mn 40s
    Bit rate mode : Constant
    Bit rate : 192 Kbps
    Channel(s) : 2 channels
    Channel positions : Front: L R
    Sampling rate : 48.0 KHz
    Compression mode : Lossy
    Stream size : 60.0 MiB (11%)
    Alignment : Split accross interleaves
    Interleave, duration : 40 ms (1.00 video frame)
    Interleave, preload duratio : 500 ms


    Download .torrent

    Download free and at maximum speed!

    How to Download? · What is a torrent? · Ratings and Limitations

    The site does not extend and does not store electronic(digital) versions of products, and only gives access to a reference catalogue created by users on torrent-files which contain only lists of the hash-sums, the earnest entreaty, with complaints(abuse) to access directly to the user. Files for an exchange on tracker are given by users of a site, and the administration does not bear the responsibility for their maintenance. The request to not fill in the files protected by copyrights, and also files of the illegal maintenance!

    [Profile] [PM]
    Display posts from previous:    
    Reply to topic

    The time now is: Today 05:29

    All times are GMT + 3 Hours

    You cannot post new topics in this forum
    You cannot reply to topics in this forum
    You cannot edit your posts in this forum
    You cannot delete your posts in this forum
    You cannot vote in polls in this forum
    You cannot attach files in this forum
    You cannot download files in this forum