BitTorrentTracker PerecTracker.org
BitTorrentTracker PerecTracker.org
    
Регистрация  ·  Вход
 
 · 
Забыли пароль?

  • Однажды преступив черту (Максим Демченко) [2015, Россия, детектив, мелодрама, HDTV 1080i]

    Ответить на тему
     
    Автор Сообщение

    rechyn

    Создавать темы 05-Сен-2015 03:55

           

    [Цитировать]

    Однажды преступив чертуСтрана: Россия
    Жанр: Детектив, мелодрама
    Год выпуска: 2015
    Продолжительность: 01:29:04
    Перевод: Не требуется
    Cубтитры: нет
    Оригинальная аудиодорожка: русский
    Режиссер: Максим Демченко
    В ролях: Светлана Тимофеева-Летуновская, Михаил Хмуров, Александр Гурбан, Александр Зеленко, Александр Одинец, Александр Тарасов (V), Анжела Кораблёва, Юлия Кудояр
    Описание: Людмила Колесникова работает горничной в гостинице. Она давно разведена и живет заботами своего сына Павла, в котором души не чает. Павел занимается спортом, хорошо учится и собирается поступать в медицинский. Так бы и жила эта маленькая небогатая, но очень дружная семья своими тихими радостями, если бы не пришла беда. Однажды на мать и сына нападают хулиганы и жестоко их избивают. Придя в себя в больнице, Людмила узнает, что Павел в коме. Дело ведет талантливый следователь Олег Ершов. Но обезумевшей от горя матери кажется, что полицейские работают недостаточно хорошо и быстро. Людмила решает сама выследить хулиганов. И на отложенные для отпуска деньги покупает пистолет.
    Сэмпл
    Тип релиза: HDTV 1080i
    Контейнер: TS
    Видео: MPEG4 Video (AVC) 1920x1080i 25fps ~11.3 Mbps 0.219 bit/pixel
    Аудио: MPEG Audio 48000Hz stereo 192kbps

    MediaInfo

    General
    ID : 1 (0x1)
    Complete name : D:\#Torrents\Rus_Serials_Films\Однажды преступив черту (2015) HDTV.1080i.by.Черник.Rutracker.ts
    Format : MPEG-TS
    File size : 7.54 GiB
    Duration : 1h 29mn
    Overall bit rate mode : Variable
    Overall bit rate : 12.1 Mbps
    Video
    ID : 67 (0x43)
    Menu ID : 1 (0x1)
    Format : AVC
    Format/Info : Advanced Video Codec
    Format profile : Main@L4
    Format settings, CABAC : Yes
    Format settings, ReFrames : 3 frames
    Format settings, GOP : M=4, N=28
    Codec ID : 27
    Duration : 1h 29mn
    Bit rate : 11.3 Mbps
    Width : 1 920 pixels
    Height : 1 080 pixels
    Display aspect ratio : 16:9
    Frame rate : 25.000 fps
    Standard : Component
    Color space : YUV
    Chroma subsampling : 4:2:0
    Bit depth : 8 bits
    Scan type : Interlaced
    Scan order : Top Field First
    Bits/(Pixel*Frame) : 0.219
    Stream size : 7.05 GiB (93%)
    Color range : Limited
    Color primaries : BT.709
    Transfer characteristics : BT.709
    Matrix coefficients : BT.709
    Audio
    ID : 68 (0x44)
    Menu ID : 1 (0x1)
    Format : MPEG Audio
    Format version : Version 1
    Format profile : Layer 2
    Codec ID : 3
    Duration : 1h 29mn
    Bit rate mode : Constant
    Bit rate : 192 Kbps
    Channel(s) : 2 channels
    Sampling rate : 48.0 KHz
    Compression mode : Lossy
    Delay relative to video : -120ms
    Stream size : 122 MiB (2%)
    Language : Russian

    Скриншоты

    Скачать .torrent

    Скачать торрент-файл бесплатно и на максимальной скорости!

    Как скачивать? · Что такое торрент? · Рейтинг и ограничения

    !ВНИМАНИЕ!
    Сайт не распространяет и не хранит электронные версии произведений, а занимается лишь лишь предоставлением доступа к создаваемому пользователями каталогу ссылок на торрент-файлы, которые содержат только списки хеш-сумм, убедительная просьба с жалобами обращаться напрямую к пользователю. Файлы для обмена на трекере предоставлены пользователями сайта, и администрация не несёт ответственности за их содержание. Просьба не заливать файлы, защищенные авторскими правами, а также файлы нелегального содержания!


    _________________
    [Профиль] [ЛС]
    Показать сообщения:    
    Ответить на тему

    Текущее время: Сегодня, в 00:03

    Часовой пояс: GMT + 2



    Вы не можете начинать темы
    Вы не можете отвечать на сообщения
    Вы не можете редактировать свои сообщения
    Вы не можете удалять свои сообщения
    Вы не можете голосовать в опросах
    Вы не можете прикреплять файлы к сообщениям
    Вы не можете скачивать файлы