BitTorrentTracker PerecTracker.org
BitTorrentTracker PerecTracker.org
    
Регистрация  ·  Вход
 
 · 
Забыли пароль?

  • Мумия: Воскрешение / The Mummy Resurrected (Патрик МакМанус / Patrick McManus) [2014, США, Ужасы, HDRip] VO (PashaUp) + Original Eng

    Ответить на тему
     
    Автор Сообщение

    Light

    Создавать темы 04-Сен-2015 11:07

           

    [Цитировать]

    Мумия: Воскрешение / The Mummy Resurrected
    Страна: США
    Жанр: Ужасы
    Год выпуска: 2014
    Продолжительность: 01:20:21
    Перевод: Одноголосый закадровый PashaUp
    Cубтитры: нет
    Оригинальная аудиодорожка: английский
    Режиссер: Патрик МакМанус / Patrick McManus
    В ролях: Лорен Бронлиуи, Элизабет Фридман, Бэйли Геддис, Ияд Хаджджадж, Фуад Хаджи, Марк Наджи, Пабло Тайм Нуньес, Джесси Пэддок, Стюарт Ригби, Алена Савостикова
    Описание: Когда команда археологов обнаруживает древнюю мумию, начальник экспедиции в интересах науки произносит над гробницей древнее заклинание. Мумия восстаёт из мира мёртвых, и начинает планомерно сокращать поголовье любопытных археологов.
    Сэмпл: http://multi-up.com/1064984
    Качество видео: HDRip (исходник не известен)
    Формат видео: AVI
    Видео: Xvid 720x400 23.98fps 1 745 Kbps
    Аудио: Dolby AC3 48000Hz 6ch 448kbps rus
    Аудио 2: Dolby AC3 48000Hz 6ch 448kbps eng

    MediaInfo

    Format : AVI
    Format/Info : Audio Video Interleave
    File size : 1.49 GiB
    Duration : 1h 20mn
    Overall bit rate : 2 655 Kbps
    Writing application : VirtualDubModRus 1.5.10.2 (build 2542/release)
    Writing library : VirtualDubMod build 2542/release
    Video
    ID : 0
    Format : MPEG-4 Visual
    Format profile : Advanced Simple@L5
    Format settings, BVOP : Yes
    Format settings, QPel : No
    Format settings, GMC : No warppoints
    Format settings, Matrix : Default (H.263)
    Muxing mode : Packed bitstream
    Codec ID : XVID
    Codec ID/Hint : XviD
    Duration : 1h 20mn
    Bit rate : 1 745 Kbps
    Width : 720 pixels
    Height : 400 pixels
    Display aspect ratio : 16:9
    Frame rate : 23.976 fps
    Resolution : 8 bits
    Colorimetry : 4:2:0
    Scan type : Progressive
    Bits/(Pixel*Frame) : 0.253
    Stream size : 1 003 MiB (66%)
    Writing library : XviD 66
    Audio #1
    ID : 1
    Format : AC-3
    Format/Info : Audio Coding 3
    Codec ID : 2000
    Duration : 1h 20mn
    Bit rate mode : Constant
    Bit rate : 448 Kbps
    Channel(s) : 6 channels
    Channel positions : Front: L C R, Surround: L R, LFE
    Sampling rate : 48.0 KHz
    Stream size : 258 MiB (17%)
    Alignment : Split accross interleaves
    Interleave, duration : 42 ms (1.00 video frame)
    Interleave, preload duration : 500 ms
    Audio #2
    ID : 2
    Format : AC-3
    Format/Info : Audio Coding 3
    Codec ID : 2000
    Duration : 1h 20mn
    Bit rate mode : Constant
    Bit rate : 448 Kbps
    Channel(s) : 6 channels
    Channel positions : Front: L C R, Surround: L R, LFE
    Sampling rate : 48.0 KHz
    Stream size : 258 MiB (17%)
    Alignment : Aligned on interleaves
    Interleave, duration : 42 ms (1.00 video frame)
    Interleave, preload duration : 512 ms

    Скриншот c названием фильма

    Скриншоты

    Скачать .torrent

    Скачать торрент-файл бесплатно и на максимальной скорости!

    Как скачивать? · Что такое торрент? · Рейтинг и ограничения

    !ВНИМАНИЕ!
    Сайт не распространяет и не хранит электронные версии произведений, а занимается лишь лишь предоставлением доступа к создаваемому пользователями каталогу ссылок на торрент-файлы, которые содержат только списки хеш-сумм, убедительная просьба с жалобами обращаться напрямую к пользователю. Файлы для обмена на трекере предоставлены пользователями сайта, и администрация не несёт ответственности за их содержание. Просьба не заливать файлы, защищенные авторскими правами, а также файлы нелегального содержания!


    _________________
    [Профиль] [ЛС]
    Показать сообщения:    
    Ответить на тему

    Текущее время: Сегодня, в 19:45

    Часовой пояс: GMT + 2



    Вы не можете начинать темы
    Вы не можете отвечать на сообщения
    Вы не можете редактировать свои сообщения
    Вы не можете удалять свои сообщения
    Вы не можете голосовать в опросах
    Вы не можете прикреплять файлы к сообщениям
    Вы не можете скачивать файлы