BitTorrentTracker PerecTracker.org
BitTorrentTracker PerecTracker.org
    
Регистрация  ·  Вход
 
 · 
Забыли пароль?

  • Земные девушки легко доступны / Earth Girls Are Easy (Джульен Темпл / Julien Temple) [1988, Великобритания, США, фантастика, мелодрама, комедия, WEB-DL 720p] DVO (НТВ+) + MVO + AVO (В. Дохалов) + Sub Eng + Original Eng

    Ответить на тему
     
    Автор Сообщение

    Flirldrerve

    Создавать темы 03-Сен-2015 18:19

           

    [Цитировать]

    Земные девушки легко доступны / Earth Girls Are Easy
    Страна: Великобритания, США
    Студия: De Laurentiis Entertainment Group (DEG), Earth Girls, Kestrel Films
    Жанр: фантастика, мелодрама, комедия
    Год выпуска: 1988
    Продолжительность: 01:40:23
    Перевод 1: Профессиональный (двухголосый закадровый) НТВ+
    Перевод 2: Профессиональный (многоголосый закадровый)
    Перевод 3: Авторский (одноголосый закадровый) В. Дохалов
    Cубтитры: английские
    Оригинальная аудиодорожка: английский
    Режиссер: Джульен Темпл / Julien Temple
    В ролях: Джина Дэвис, Джефф Голдблюм, Джим Керри, Дэймон Уайанс, Джули Браун, Майкл МакКин, Чарльз Роккет, Ларри Линвилл, Рик Овертон, Дайан Стилвелл...
    Описание: Несколько отчаянных ребят с другой планеты заблудились в космосе и попадают на землю. В этой фантастической комедии им предстоит испытать все прелести земной жизни.
    II Сэмпл II IMDB II
    Тип релиза: WEB-DL 720p
    Контейнер: MKV
    Видео: AVC / 1280x716 / 16:9 / 23.976fps / Bit rate 3823Kbps
    Аудио 1: AC3 / 48.0 KHz / 2ch. / 192kbps / rus / dvo / НТВ+
    Аудио 2: AC3 / 48.0 KHz / 2ch. / 192kbps / rus / mvo
    Аудио 3: AC3 / 48.0 KHz / 2ch. / 192kbps / rus / avo / В. Дохалов
    Аудио 4: AAC-LC / 48.0 KHz / 2ch. / 128kbps / eng
    Формат субтитров: softsub (SRT)

    MediaInfo

    Общее
    Уникальный идентификатор : 185650744923790558071966079883969685282 (0x8BAB086B20EAF78C99A8F14D3025E722)
    Полное имя : H:\!_Torrent\Earth.Girls.Are.Easy.1988.WEB-DL.720p_by_vedigo.mkv
    Формат : Matroska
    Версия формата : Version 4 / Version 2
    Размер файла : 3,23 Гбайт
    Продолжительность : 1 ч. 40 м.
    Общий поток : 4605 Кбит/сек
    Название фильма : Earth.Girls.Are.Easy.1988.WEB-DL.720p_by_vedigo
    Дата кодирования : UTC 2015-08-26 05:49:24
    Программа кодирования : mkvmerge v8.3.0 ('Over the Horizon') 64bit
    Библиотека кодирования : libebml v1.3.1 + libmatroska v1.4.2
    DURATION : 01:40:22.944000000
    NUMBER_OF_FRAMES : 188217
    NUMBER_OF_BYTES : 144550656
    _STATISTICS_WRITING_APP : mkvmerge v8.3.0 ('Over the Horizon') 64bit
    _STATISTICS_WRITING_DATE_UTC : 2015-08-26 05:49:24
    _STATISTICS_TAGS : BPS DURATION NUMBER_OF_FRAMES NUMBER_OF_BYTES
    Видео
    Идентификатор : 1
    Формат : AVC
    Формат/Информация : Advanced Video Codec
    Профиль формата : High@L3.1
    Параметр CABAC формата : Нет
    Параметр ReFrames формата : 2 кадра
    Идентификатор кодека : V_MPEG4/ISO/AVC
    Продолжительность : 1 ч. 40 м.
    Ширина : 1280 пикселей
    Высота : 716 пикселей
    Соотношение сторон : 16:9
    Режим частоты кадров : Постоянный
    Частота кадров : 23,976 кадра/сек
    Цветовое пространство : YUV
    Субдискретизация насыщенности : 4:2:0
    Битовая глубина : 8 бит
    Тип развёртки : Прогрессивная
    Заголовок : Earth.Girls.Are.Easy.1988.WEB-DL.720p_by_vedigo
    Default : Да
    Forced : Нет
    Цветовой диапазон : Limited
    Основные цвета : BT.709
    Характеристики трансфера : BT.709
    Коэффициенты матрицы : BT.709
    Аудио #1
    Идентификатор : 2
    Формат : AC-3
    Формат/Информация : Audio Coding 3
    Расширение режима : CM (complete main)
    Параметр Endianness формата : Big
    Идентификатор кодека : A_AC3
    Продолжительность : 1 ч. 40 м.
    Вид битрейта : Постоянный
    Битрейт : 192 Кбит/сек
    Каналы : 2 канала
    Расположение каналов : Front: L R
    Частота : 48,0 КГц
    Метод сжатия : С потерями
    Размер потока : 138 Мбайт (4%)
    Заголовок : DVO @ НТВ+
    Язык : Russian
    Default : Да
    Forced : Нет
    Аудио #2
    Идентификатор : 3
    Формат : AC-3
    Формат/Информация : Audio Coding 3
    Расширение режима : CM (complete main)
    Параметр Endianness формата : Big
    Идентификатор кодека : A_AC3
    Продолжительность : 1 ч. 40 м.
    Вид битрейта : Постоянный
    Битрейт : 192 Кбит/сек
    Каналы : 2 канала
    Расположение каналов : Front: L R
    Частота : 48,0 КГц
    Метод сжатия : С потерями
    Размер потока : 138 Мбайт (4%)
    Заголовок : MVO
    Язык : Russian
    Default : Нет
    Forced : Нет
    Аудио #3
    Идентификатор : 4
    Формат : AC-3
    Формат/Информация : Audio Coding 3
    Расширение режима : CM (complete main)
    Параметр Endianness формата : Big
    Идентификатор кодека : A_AC3
    Продолжительность : 1 ч. 40 м.
    Вид битрейта : Постоянный
    Битрейт : 192 Кбит/сек
    Каналы : 2 канала
    Расположение каналов : Front: L R
    Частота : 48,0 КГц
    Метод сжатия : С потерями
    Размер потока : 138 Мбайт (4%)
    Заголовок : AVO @ В. Дохалов
    Язык : Russian
    Default : Нет
    Forced : Нет
    Аудио #4
    Идентификатор : 5
    Формат : AAC
    Формат/Информация : Advanced Audio Codec
    Профиль формата : LC
    Идентификатор кодека : A_AAC
    Продолжительность : 1 ч. 40 м.
    Каналы : 2 канала
    Расположение каналов : Front: L R
    Частота : 48,0 КГц
    Метод сжатия : С потерями
    Заголовок : original
    Язык : English
    Default : Нет
    Forced : Нет
    Текст
    Идентификатор : 6
    Формат : UTF-8
    Идентификатор кодека : S_TEXT/UTF8
    Идентификатор кодека/Информация : UTF-8 Plain Text
    Заголовок : subtitle eng
    Язык : English
    Default : Нет
    Forced : Нет
    Меню
    00:00:00.000 : en:Chapter 1
    00:07:15.000 : en:Chapter 2
    00:16:56.000 : en:Chapter 3
    00:22:49.000 : en:Chapter 4
    00:30:30.000 : en:Chapter 5
    00:39:10.000 : en:Chapter 6
    00:48:53.000 : en:Chapter 7
    00:57:14.000 : en:Chapter 8
    01:03:51.000 : en:Chapter 9
    01:13:15.000 : en:Chapter 10
    01:22:32.000 : en:Chapter 11
    01:31:25.000 : en:Chapter 12
    01:35:48.000 : en:Chapter 13

    Скриншоты


    Скачать .torrent

    Скачать торрент-файл бесплатно и на максимальной скорости!

    Как скачивать? · Что такое торрент? · Рейтинг и ограничения

    !ВНИМАНИЕ!
    Сайт не распространяет и не хранит электронные версии произведений, а занимается лишь лишь предоставлением доступа к создаваемому пользователями каталогу ссылок на торрент-файлы, которые содержат только списки хеш-сумм, убедительная просьба с жалобами обращаться напрямую к пользователю. Файлы для обмена на трекере предоставлены пользователями сайта, и администрация не несёт ответственности за их содержание. Просьба не заливать файлы, защищенные авторскими правами, а также файлы нелегального содержания!


    _________________
    [Профиль] [ЛС]
    Показать сообщения:    
    Ответить на тему

    Текущее время: Сегодня, в 13:58

    Часовой пояс: GMT + 2



    Вы не можете начинать темы
    Вы не можете отвечать на сообщения
    Вы не можете редактировать свои сообщения
    Вы не можете удалять свои сообщения
    Вы не можете голосовать в опросах
    Вы не можете прикреплять файлы к сообщениям
    Вы не можете скачивать файлы