BitTorrentTracker PerecTracker.org
BitTorrentTracker PerecTracker.org
    
Регистрация  ·  Вход
 
 · 
Забыли пароль?

  • Смерть свадебного свидетеля / Best Man Down (Тед Коланд / Ted Koland) [2012, США, драма, комедия, BDRip 720p] MVO + Sub Rus, Eng + Original Eng

    Ответить на тему
     
    Автор Сообщение

    Flirldrerve

    Создавать темы 03-Сен-2015 09:55

           

    [Цитировать]

    -Смерть свадебного свидетеля | Best Man Down-Год выпуска: 2012
    Страна: США
    Студия: KODA Entertainment
    Жанр: драма, комедия
    Продолжительность: 01:29:50-Перевод: Профессиональный (многоголосый закадровый) | Официальный
    Cубтитры: Русские, английские
    Оригинальная аудиодорожка: английский-Режиссёр: Тед Коланд / Ted Koland-В ролях: Джастин Лонг, Джесс Вейкслер, Тайлер Лэбин, Эддисон Тимлин, Шелли Лонг, Фрэнсис О’Коннор, Ивэн Джонс, Майкл Лэндис, Питер Сивертсен, Джеймс Детмар-Описание: У Скотта и Кристин наступил долгожданный и волнительный день их бракосочетания. После празднования свадебного торжества влюбленные собираются отправиться в путешествие. Однако финал праздника омрачается трагическим событием: лучшего друга жениха Лампи, который на свадьбе был его свидетелем, находят мертвым…--Качество: BDRip 720p
    Формат: MKV
    Видео: x264, ~ 5000 kbps, 1280x544(16:9), 23,976 fps
    Аудио 1: AC3, 48,0 КГц, 2 ch, 192 kbps - Rus
    Аудио 2: DTS, 48,0 КГц, 6 ch, 1510 kbps- Eng
    Субтитры: Русские, английские-

    MediaInfo

    Общее
    Уникальный идентификатор                 : 178739132820364182998379286023964825237 (0x8677E7A1D769D167A39C826AF8499695)
    Полное имя                               : D:\загрузки\Best.Man.Down.2013.P.Blu.Ray.720p.mkv
    Формат                                   : Matroska
    Версия формата                           : Version 4 / Version 2
    Размер файла                             : 4,21 Гбайт
    Продолжительность                        : 1 ч. 29 м.
    Общий поток                              : 6702 Кбит/сек
    Дата кодирования                         : UTC 2015-08-23 21:24:27
    Программа кодирования                    : mkvmerge v7.3.0 ('Nouages') 32bit built on Oct 22 2014 18:44:01
    Библиотека кодирования                   : libebml v1.3.0 + libmatroska v1.4.1
    DURATION                                 : 01:29:50.187000000
    NUMBER_OF_FRAMES                         : 505330
    NUMBER_OF_BYTES                          : 1017229290
    _STATISTICS_WRITING_APP                  : mkvmerge v7.3.0 ('Nouages') 32bit built on Oct 22 2014 18:44:01
    _STATISTICS_WRITING_DATE_UTC             : 2015-08-23 21:24:27
    _STATISTICS_TAGS                         : BPS DURATION NUMBER_OF_FRAMES NUMBER_OF_BYTES
    Видео
    Идентификатор                            : 1
    Формат                                   : AVC
    Формат/Информация                        : Advanced Video Codec
    Профиль формата                          : High@L4.1
    Параметр CABAC формата                   : Да
    Параметр ReFrames формата                : 12 кадров
    Идентификатор кодека                     : V_MPEG4/ISO/AVC
    Продолжительность                        : 1 ч. 29 м.
    Битрейт                                  : 5000 Кбит/сек
    Ширина                                   : 1280 пикселей
    Высота                                   : 544 пикселя
    Соотношение сторон                       : 2,35:1
    Режим частоты кадров                     : Постоянный
    Частота кадров                           : 23,976 кадра/сек
    Цветовое пространство                    : YUV
    Субдискретизация насыщенности            : 4:2:0
    Битовая глубина                          : 8 бит
    Тип развёртки                            : Прогрессивная
    Бит/(Пиксели*Кадры)                      : 0.299
    Размер потока                            : 3,05 Гбайт (73%)
    Библиотека кодирования                   : x264 core 133 r2334 a3ac64b
    Настройки программы                      : cabac=1 / ref=12 / deblock=1:-3:-3 / analyse=0x3:0x113 / me=umh / subme=11 / psy=1 / psy_rd=1.00:0.00 / mixed_ref=1 / me_range=32 / chroma_me=1 / trellis=2 / 8x8dct=1 / cqm=0 / deadzone=21,11 / fast_pskip=0 / chroma_qp_offset=-2 / threads=6 / lookahead_threads=1 / sliced_threads=0 / nr=0 / decimate=0 / interlaced=0 / bluray_compat=0 / constrained_intra=0 / bframes=8 / b_pyramid=2 / b_adapt=2 / b_bias=0 / direct=3 / weightb=1 / open_gop=0 / weightp=2 / keyint=240 / keyint_min=24 / scenecut=40 / intra_refresh=0 / rc_lookahead=240 / rc=2pass / mbtree=1 / bitrate=5000 / ratetol=1.0 / qcomp=0.70 / qpmin=0 / qpmax=69 / qpstep=4 / cplxblur=20.0 / qblur=0.5 / ip_ratio=1.10 / aq=1:0.80
    Язык                                     : English
    Default                                  : Да
    Forced                                   : Нет
    DURATION                                 : 01:29:50.135000000
    NUMBER_OF_FRAMES                         : 129234
    NUMBER_OF_BYTES                          : 3366866977
    _STATISTICS_WRITING_APP                  : mkvmerge v7.3.0 ('Nouages') 32bit built on Oct 22 2014 18:44:01
    _STATISTICS_WRITING_DATE_UTC             : 2015-08-23 21:24:27
    _STATISTICS_TAGS                         : BPS DURATION NUMBER_OF_FRAMES NUMBER_OF_BYTES
    Аудио #1
    Идентификатор                            : 4
    Формат                                   : AC-3
    Формат/Информация                        : Audio Coding 3
    Расширение режима                        : CM (complete main)
    Параметр Endianness формата              : Big
    Идентификатор кодека                     : A_AC3
    Продолжительность                        : 1 ч. 29 м.
    Вид битрейта                             : Постоянный
    Битрейт                                  : 192 Кбит/сек
    Каналы                                   : 2 канала
    Расположение каналов                     : Front: L R
    Частота                                  : 48,0 КГц
    Битовая глубина                          : 16 бит
    Метод сжатия                             : С потерями
    Размер потока                            : 123 Мбайт (3%)
    Язык                                     : Russian
    Default                                  : Да
    Forced                                   : Нет
    Аудио #2
    Идентификатор                            : 5
    Формат                                   : DTS
    Формат/Информация                        : Digital Theater Systems
    Режим                                    : 16
    Параметр Endianness формата              : Big
    Идентификатор кодека                     : A_DTS
    Продолжительность                        : 1 ч. 29 м.
    Вид битрейта                             : Постоянный
    Битрейт                                  : 1510 Кбит/сек
    Каналы                                   : 6 каналов
    Расположение каналов                     : Front: L C R, Side: L R, LFE
    Частота                                  : 48,0 КГц
    Битовая глубина                          : 24 бит
    Метод сжатия                             : С потерями
    Размер потока                            : 970 Мбайт (23%)
    Язык                                     : English
    Default                                  : Нет
    Forced                                   : Нет
    Текст #1
    Идентификатор                            : 2
    Формат                                   : UTF-8
    Идентификатор кодека                     : S_TEXT/UTF8
    Идентификатор кодека/Информация          : UTF-8 Plain Text
    Заголовок                                : mr.IamRock
    Язык                                     : Russian
    Default                                  : Нет
    Forced                                   : Нет
    Текст #2
    Идентификатор                            : 3
    Формат                                   : UTF-8
    Идентификатор кодека                     : S_TEXT/UTF8
    Идентификатор кодека/Информация          : UTF-8 Plain Text
    Язык                                     : English
    Default                                  : Нет
    Forced                                   : Нет
    Меню
    00:00:00.000                             : en:00:00:00.000
    00:09:15.597                             : en:00:09:15.597
    00:15:01.150                             : en:00:15:01.150
    00:22:38.524                             : en:00:22:38.524
    00:30:45.469                             : en:00:30:45.469
    00:37:43.344                             : en:00:37:43.344
    00:44:18.823                             : en:00:44:18.823
    00:52:36.737                             : en:00:52:36.737
    00:59:40.285                             : en:00:59:40.285
    01:08:20.930                             : en:01:08:20.930
    01:15:27.523                             : en:01:15:27.523
    01:25:46.892                             : en:01:25:46.892

    Скриншоты

    Ссылка на предыдущие и альтернативные раздачи

    http://perectracker.org/tracker.php?nm=Best%20Man%20Down
    Скачать .torrent

    Скачать торрент-файл бесплатно и на максимальной скорости!

    Как скачивать? · Что такое торрент? · Рейтинг и ограничения

    !ВНИМАНИЕ!
    Сайт не распространяет и не хранит электронные версии произведений, а занимается лишь лишь предоставлением доступа к создаваемому пользователями каталогу ссылок на торрент-файлы, которые содержат только списки хеш-сумм, убедительная просьба с жалобами обращаться напрямую к пользователю. Файлы для обмена на трекере предоставлены пользователями сайта, и администрация не несёт ответственности за их содержание. Просьба не заливать файлы, защищенные авторскими правами, а также файлы нелегального содержания!


    _________________
    [Профиль] [ЛС]
    Показать сообщения:    
    Ответить на тему

    Текущее время: Сегодня, в 03:00

    Часовой пояс: GMT + 2



    Вы не можете начинать темы
    Вы не можете отвечать на сообщения
    Вы не можете редактировать свои сообщения
    Вы не можете удалять свои сообщения
    Вы не можете голосовать в опросах
    Вы не можете прикреплять файлы к сообщениям
    Вы не можете скачивать файлы