BitTorrentTracker PerecTracker.org
BitTorrentTracker PerecTracker.org
    
Регистрация  ·  Вход
 
 · 
Забыли пароль?

  • Одинокая белая женщина 2: Психоз / Single White Female 2: The Psycho (Кит Сэмплз / Keith Samples) [2005, США, драма, триллер, WEB-DL 720p] DVO + Sub Eng + Original Eng

    Ответить на тему
     
    Автор Сообщение

    Flirldrerve

    Создавать темы 03-Сен-2015 09:55

           

    [Цитировать]

    Одинокая белая женщина 2: Психоз / Single White Female 2: The Psycho
    Страна: США
    Студия: 3rd Street Pictures, Third Street Pictures
    Жанр: драма, триллер
    Год выпуска: 2005
    Продолжительность: 01:31:28
    Перевод: Профессиональный (двухголосый закадровый)
    Cубтитры: английские
    Оригинальная аудиодорожка: английский
    Режиссер: Кит Сэмплз / Keith Samples
    В ролях: Кристен Миллер, Эллисон Ланж, Тодд Бабкок, Брук Бернс, Франсуа Джиродэй, Трэйси МакКолл, Риф Хаттон, Кэти Байрон…
    Описание: Жизнь Холли Паркер всегда катилась по накатанным рельсам. Даже резкий разрыв с бойфрендом не смог выбить ее из привычной колеи. Героиня просто оставила эту страницу биографии в прошлом и переехала жить к своей новой подруге Тесс, с радостью ее приютившей. Тихая, застенчивая, добрая - Тесс кажется идеальной компаньонкой. Однако с каждым днем, проведенном с нею под одной крышей, у Холли крепнет подозрение, что ее подружка на самом деле вовсе не такая безобидная душечка, какой кажется.
    У той имеются свои внутренние демоны - и близок день, когда монстры больной души Тесс вырвутся на свободу, неся страдания и ужас. И первой на их пути окажется Холли Паркер...
    II Сэмпл II IMDB II
    Доп. информация:
    За русский перевод спасибо S-Sub
    Тип релиза: WEB-DL 720p
    Контейнер: MKV
    Видео: AVC / 1280x718 / 16:9 / 23.976fps / Bit rate 3904Kbps
    Аудио 1: AC3 / 48.0 KHz / 6ch. / 448kbps / rus / dvo
    Аудио 2: AC3 / 48.0 KHz / 6ch. / 384kbps / eng
    Формат субтитров: softsub (SRT)

    MediaInfo

    Общее
    Уникальный идентификатор : 218104913170955749838438483477246731283 (0xA4157A73CB88173DB39FDD7073A36413)
    Полное имя : G:\!!!_torrent\Single.White.Female.2.The.Psycho.2005.WEB-DL.720p_by_vedigo.mkv
    Формат : Matroska
    Версия формата : Version 4 / Version 2
    Размер файла : 3,09 Гбайт
    Продолжительность : 1 ч. 31 м.
    Общий поток : 4832 Кбит/сек
    Название фильма : Single.White.Female.2.The.Psycho.2005.WEB-DL.720p_by_vedigo
    Дата кодирования : UTC 2015-08-24 02:15:21
    Программа кодирования : mkvmerge v8.3.0 ('Over the Horizon') 64bit
    Библиотека кодирования : libebml v1.3.1 + libmatroska v1.4.2
    DURATION : 01:28:31.373000000
    NUMBER_OF_FRAMES : 1301
    NUMBER_OF_BYTES : 37927
    _STATISTICS_WRITING_APP : mkvmerge v8.3.0 ('Over the Horizon') 64bit
    _STATISTICS_WRITING_DATE_UTC : 2015-08-24 02:15:21
    _STATISTICS_TAGS : BPS DURATION NUMBER_OF_FRAMES NUMBER_OF_BYTES
    Видео
    Идентификатор : 1
    Формат : AVC
    Формат/Информация : Advanced Video Codec
    Профиль формата : High@L3.1
    Параметр CABAC формата : Нет
    Параметр ReFrames формата : 2 кадра
    Идентификатор кодека : V_MPEG4/ISO/AVC
    Продолжительность : 1 ч. 31 м.
    Битрейт : 3904 Кбит/сек
    Ширина : 1280 пикселей
    Высота : 718 пикселей
    Соотношение сторон : 16:9
    Режим частоты кадров : Постоянный
    Частота кадров : 23,976 кадра/сек
    Цветовое пространство : YUV
    Субдискретизация насыщенности : 4:2:0
    Битовая глубина : 8 бит
    Тип развёртки : Прогрессивная
    Бит/(Пиксели*Кадры) : 0.177
    Размер потока : 2,49 Гбайт (81%)
    Заголовок : Single.White.Female.2.The.Psycho.2005.WEB-DL.720p_by_vedigo
    Default : Да
    Forced : Нет
    Цветовой диапазон : Limited
    Основные цвета : BT.709
    Характеристики трансфера : BT.709
    Коэффициенты матрицы : BT.709
    Аудио #1
    Идентификатор : 2
    Формат : AC-3
    Формат/Информация : Audio Coding 3
    Расширение режима : CM (complete main)
    Параметр Endianness формата : Big
    Идентификатор кодека : A_AC3
    Продолжительность : 1 ч. 31 м.
    Вид битрейта : Постоянный
    Битрейт : 448 Кбит/сек
    Каналы : 6 каналов
    Расположение каналов : Front: L C R, Side: L R, LFE
    Частота : 48,0 КГц
    Метод сжатия : С потерями
    Размер потока : 293 Мбайт (9%)
    Заголовок : DVO
    Язык : Russian
    Default : Да
    Forced : Нет
    Аудио #2
    Идентификатор : 3
    Формат : AC-3
    Формат/Информация : Audio Coding 3
    Расширение режима : CM (complete main)
    Параметр Endianness формата : Big
    Идентификатор кодека : A_AC3
    Продолжительность : 1 ч. 31 м.
    Вид битрейта : Постоянный
    Битрейт : 384 Кбит/сек
    Каналы : 6 каналов
    Расположение каналов : Front: L C R, Side: L R, LFE
    Частота : 48,0 КГц
    Метод сжатия : С потерями
    Размер потока : 251 Мбайт (8%)
    Заголовок : original
    Язык : English
    Default : Нет
    Forced : Нет
    Текст
    Идентификатор : 4
    Формат : UTF-8
    Идентификатор кодека : S_TEXT/UTF8
    Идентификатор кодека/Информация : UTF-8 Plain Text
    Заголовок : subtitle eng
    Язык : English
    Default : Нет
    Forced : Нет
    Меню
    00:00:00.000 : en:Start
    00:03:21.000 : en:Competitive Females
    00:09:01.000 : en:Jealousy Is Not Sexy
    00:15:16.000 : en:New Roommate
    00:21:01.000 : en:Restaurant Opening Night
    00:31:00.000 : en:Conflicting Stories
    00:42:25.000 : en:A Dark Side
    00:48:37.000 : en:For The Cause
    00:52:18.000 : en:"It's Time."
    01:04:37.000 : en:False Seduction
    01:15:45.000 : en:Finding Evidence
    01:19:49.000 : en:"Release The Pain."

    Скриншоты


    Скачать .torrent

    Скачать торрент-файл бесплатно и на максимальной скорости!

    Как скачивать? · Что такое торрент? · Рейтинг и ограничения

    !ВНИМАНИЕ!
    Сайт не распространяет и не хранит электронные версии произведений, а занимается лишь лишь предоставлением доступа к создаваемому пользователями каталогу ссылок на торрент-файлы, которые содержат только списки хеш-сумм, убедительная просьба с жалобами обращаться напрямую к пользователю. Файлы для обмена на трекере предоставлены пользователями сайта, и администрация не несёт ответственности за их содержание. Просьба не заливать файлы, защищенные авторскими правами, а также файлы нелегального содержания!


    _________________
    [Профиль] [ЛС]
    Показать сообщения:    
    Ответить на тему

    Текущее время: Сегодня, в 18:39

    Часовой пояс: GMT + 2



    Вы не можете начинать темы
    Вы не можете отвечать на сообщения
    Вы не можете редактировать свои сообщения
    Вы не можете удалять свои сообщения
    Вы не можете голосовать в опросах
    Вы не можете прикреплять файлы к сообщениям
    Вы не можете скачивать файлы