Register  ·  Log in
Forgot password?

  • Школа Эвер Афтер. Сказка наизнанку / Ever After High. Spring Unsprung (Брэндон Скотт / Brandon Scott) [2015, фэнтези, комедия, DVB] Dub

    Reply to topic
    Author Message


    Post 03-Sep-2015 10:55



    Школа Эвер Афтер. Сказка наизнанку / Ever After High. Spring Unsprung
    Год выпуска: 2015
    Страна: Канада
    Жанр: фэнтези, комедия
    Продолжительность: 00:44:10
    Перевод: Профессиональный (дублированный)
    Русские субтитры: нет
    Режиссёр: Брэндон Скотт / Brandon Scott
    Описание: Что теперь произошло в Школе Эвер Афтер такого, что все ученики бьют тревогу? Может быть снова Рейвен Квин решила пойти правил школы и своей судьбы? Или Сперроу Гуд сделал какую-нибудь пакость для своих одноклассников? Нет! Все дело совсем в другом, и пока что ученики пытаются понять, что случилось и как решить эту проблему.
    Доп. информация:

    Релиз группы:
    Качество видео: DVB
    Формат видео: MPEG-PS
    Видео: MPEG2 Video, 720x576 (4:3), 25 fps, 2200 kbps
    Аудио: MPEG Audiо, 2 сh, 48 kHz, 192 kbps


    Complete name : G:\Ever After High. Сказка наизнанку. (2015)_DVB by SLuMeP.mpg
    Format : MPEG-PS
    File size : 767 MiB
    Duration : 44mn 10s
    Overall bit rate mode : Variable
    Overall bit rate : 2 427 Kbps
    ID : 224 (0xE0)
    Format : MPEG Video
    Format version : Version 2
    Format profile : Main@Main
    Format settings, BVOP : Yes
    Format settings, Matrix : Custom
    Format settings, GOP : Variable
    Format settings, picture st : Frame
    Duration : 44mn 10s
    Bit rate mode : Variable
    Bit rate : 2 186 Kbps
    Maximum bit rate : 15.0 Mbps
    Width : 720 pixels
    Height : 576 pixels
    Display aspect ratio : 4:3
    Frame rate : 25.000 fps
    Standard : PAL
    Color space : YUV
    Chroma subsampling : 4:2:0
    Bit depth : 8 bits
    Scan type : Interlaced
    Scan order : Top Field First
    Compression mode : Lossy
    Bits/(Pixel*Frame) : 0.211
    Time code of first frame : 00:00:00:00
    Time code source : Group of pictures header
    Stream size : 691 MiB (90%)
    ID : 192 (0xC0)
    Format : MPEG Audio
    Format version : Version 1
    Format profile : Layer 2
    Duration : 44mn 10s
    Bit rate mode : Constant
    Bit rate : 192 Kbps
    Channel(s) : 2 channels
    Sampling rate : 48.0 KHz
    Compression mode : Lossy
    Stream size : 60.7 MiB (8%)


    Download .torrent

    Download free and at maximum speed!

    How to Download? · What is a torrent? · Ratings and Limitations

    The site does not extend and does not store electronic(digital) versions of products, and only gives access to a reference catalogue created by users on torrent-files which contain only lists of the hash-sums, the earnest entreaty, with complaints(abuse) to access directly to the user. Files for an exchange on tracker are given by users of a site, and the administration does not bear the responsibility for their maintenance. The request to not fill in the files protected by copyrights, and also files of the illegal maintenance!

    [Profile] [PM]
    Display posts from previous:    
    Reply to topic

    The time now is: Today 04:42

    All times are GMT + 3 Hours

    You cannot post new topics in this forum
    You cannot reply to topics in this forum
    You cannot edit your posts in this forum
    You cannot delete your posts in this forum
    You cannot vote in polls in this forum
    You cannot attach files in this forum
    You cannot download files in this forum