BitTorrentTracker PerecTracker.org
BitTorrentTracker PerecTracker.org
    
Регистрация  ·  Вход
 
 · 
Забыли пароль?

  • Борис Пастернак. Стихотворения Юрия Живаго [2014 г., Музыкально-поэтическая композиция, WEВ-DLRip] Государственный музей изобразительных искусств имени А.С. Пушкина

    Ответить на тему
     
    Автор Сообщение

    Light

    Создавать темы 03-Сен-2015 09:55

           

    [Цитировать]

    Борис Пастернак. Стихотворения Юрия ЖивагоГосударственный музей изобразительных искусств имени А.С. Пушкина.
    Год выпуска: 2014.
    Жанр: Музыкально-поэтическая композиция.
    Продолжительность: 00:44:40.
    Исполнители: Андрей Кузичев, Алиса Гребенщикова.
    Партия фортепиано: Алина Ненашева.
    Описание:
    Музыкально-поэтическая композиция по стихам Бориса Пастернака из романа "Доктор Живаго".
    Живаговский цикл включает в себя стихотворения, написанные в период с 1946 по 1953 год, чрезвычайно разнообразные по жанру и лирической тематике. "Авторство" этих стихов - аксиома, вроде бы не требующая доказательств. Как справедливо отметил В. Альфонсов, "мы слишком знаем, что они написаны Пастернаком, что по времени они никак не совпадают с эпохой, изображенной в романе". Но, погружаясь в художественный мир "Доктора Живаго", мы как бы отрешаемся от этого априорного знания и неизбежно принимаем "правила игры", предлагаемые автором. Думается, главная причина тому - сами стихи: их теснейшая, органическая связь с прозаическим текстом, отсутствие полного тождества между автором и героем - как в личном, так и профессиональном плане. Иными словами - те моменты, которые дают нам возможность осмыслить индивидуальные поэтико-стилистические особенности стихотворений цикла как художественный прием, позволяющий раскрыть образ главного героя, врача и поэта-дилетанта Юрия Андреевича Живаго, во всей его полноте и многогранности, показать его внутренний мир, проследить основные вехи его духовной и творческой эволюции, а также осуществить философско-символическое переосмысление отображенных в романе реальных исторических событий.
    (А. С. Власов)

    Дополнительная информация:
    Страна: Россия .
    Релиз

    Качество видео:...SATRip
    Формат:.................AVI
    Видео:..720x416 (1.73:1), 25 fps, XviD build 73 ~2135 kbps avg, 0.28 bit/pixel
    Аудио:..48 kHz, MPEG Layer 3, 2 ch, ~128.00 kbps avg

    Отчет MI

    Общее
    Полное имя : Boris.Pasternak.Stihotvoreniya.Yuriya.Zhivago.2014.XviD.SATRip.fenixclub.avi
    Format : AVI
    Format/Info : Audio Video Interleave
    File size : 726 MiB
    Duration : 44mn 40s
    Overall bit rate : 2 273 Kbps
    Video
    ID : 0
    Format : MPEG-4 Visual
    Format profile : Advanced Simple@L5
    Format settings, BVOP : 2
    Format settings, QPel : No
    Format settings, GMC : No warppoints
    Format settings, Matrix : Default (H.263)
    Codec ID : XVID
    Codec ID/Hint : XviD
    Duration : 44mn 40s
    Bit rate : 2 135 Kbps
    Width : 720 pixels
    Height : 416 pixels
    Display aspect ratio : 1.731
    Frame rate : 25.000 fps
    Color space : YUV
    Chroma subsampling : 4:2:0
    Bit depth : 8 bits
    Scan type : Progressive
    Compression mode : Lossy
    Bits/(Pixel*Frame) : 0.285
    Stream size : 682 MiB (94%)
    Writing library : XviD 73
    Audio
    ID : 1
    Format : MPEG Audio
    Format version : Version 1
    Format profile : Layer 3
    Mode : Joint stereo
    Mode extension : MS Stereo
    Codec ID : 55
    Codec ID/Hint : MP3
    Duration : 44mn 40s
    Bit rate mode : Constant
    Bit rate : 128 Kbps
    Channel(s) : 2 channels
    Sampling rate : 48.0 KHz
    Compression mode : Lossy
    Stream size : 40.9 MiB (6%)
    Alignment : Split accross interleaves
    Interleave, duration : 40 ms (1.00 video frame)
    Interleave, preload duratio : 500 ms
    Writing library : LAME3.98.2
    Скриншоты

    Альтернативный хост

    Скачать .torrent

    Скачать торрент-файл бесплатно и на максимальной скорости!

    Как скачивать? · Что такое торрент? · Рейтинг и ограничения

    !ВНИМАНИЕ!
    Сайт не распространяет и не хранит электронные версии произведений, а занимается лишь лишь предоставлением доступа к создаваемому пользователями каталогу ссылок на торрент-файлы, которые содержат только списки хеш-сумм, убедительная просьба с жалобами обращаться напрямую к пользователю. Файлы для обмена на трекере предоставлены пользователями сайта, и администрация не несёт ответственности за их содержание. Просьба не заливать файлы, защищенные авторскими правами, а также файлы нелегального содержания!


    _________________
    [Профиль] [ЛС]
    Показать сообщения:    
    Ответить на тему

    Текущее время: Сегодня, в 01:48

    Часовой пояс: GMT + 2



    Вы не можете начинать темы
    Вы не можете отвечать на сообщения
    Вы не можете редактировать свои сообщения
    Вы не можете удалять свои сообщения
    Вы не можете голосовать в опросах
    Вы не можете прикреплять файлы к сообщениям
    Вы не можете скачивать файлы