BitTorrentTracker PerecTracker.org
BitTorrentTracker PerecTracker.org
    
Регистрация  ·  Вход
 
 · 
Забыли пароль?

  • Если я останусь / If I Stay (Р.Дж. Катлер / R.J. Cutler) [2014, США, драма, BDRip, 480p] Dub + Original + sub (rus, eng)

    Ответить на тему
     
    Автор Сообщение

    rechyn

    Создавать темы 02-Сен-2015 12:56

           

    [Цитировать]

    Если я останусь / If I Stay--Год выпуска: 2014
    Страна: США
    Жанр: драма
    Продолжительность: 01:46:40
    Рейтинг MPAA: PG-13
    Рейтинг КиноПоиск: 6.8
    Рейтинг IMDb: 7-Перевод: Профессиональный (дублированный)
    Оригинальная аудиодорожка: есть
    Cубтитры: русские и английские
    Режиссёр: Р.Дж. Катлер / R.J. Cutler
    Сценарий: Шона Кросс, Гейл Форман
    Продюссер: Денис Ди Нови, Элисон Гринспен, Гейл Форман
    В ролях: Хлоя Грейс Морец, Мирей Инос, Джейми Блэкли, Джошуа Леонард, Лиана Либерато, Стейси Кич, Габриель Роз, Джейкоб Дейвис, Али Милнер, Аиша Хиндс-Описание:
    Мия — талантливая девушка, влюбленная в классическую музыку, в свою виолончель и рокера Адама. Но после автокатастрофы Мия оказывается в коме. Пока тело девушки лежит в больнице, ее душа должна решить, хочет ли она жить дальше или же лучше отправиться в мир иной вслед за своими родными.-Качество исходника: BDRemux
    Качество: BDRip
    Разрешение: 480p
    Формат: M4V
    Видео: AVC at 1800 Кбит/сек, 640 x 354 (2.406) at 23.976 fps
    Аудио: AAC at 128 Кбит/сек, 2 канала, 48,0 КГц
    Аудио №2: AAC at 128 Кбит/сек, 2 канала, 48,0 КГц-

    iTunes Meta Tags

    Media Type: MovieSort Name: If I StayXID: Apple:vendor_id:2014-tt1355630Content ID: 463860ScreenWriters: Шона Кросс, Гейл ФорманProducers: Денис Ди Нови, Элисон Гринспен, Гейл ФорманDirector: Р.Дж. КатлерCast: Хлоя Грейс Морец, Мирей Инос, Джейми Блэкли, Джошуа Леонард, Лиана Либерато, Стейси Кич, Габриель Роз, Джейкоб Дейвис, Али Милнер, Аиша ХиндсRating: PG-13Long Description: Мия - талантливая девушка, влюбленная в классическую музыку, в свою виолончель и рокера Адама. Но после автокатастрофы Мия оказывается в коме. Пока тело девушки лежит в больнице, ее душа должна решить, хочет ли она жить дальше или же лучше отправиться в мир иной вслед за своими родными.Description: Мия - талантливая девушка, влюбленная в классическую музыку, в свою виолончель и рокера Адама. Но после автокатастрофы Мия оказывается в коме. Пока тело девушки лежит в больнице, ее душа должна решить, хочет ли она жить дальше или же лучше отправитьсRelease Date: 2014-08-22Genre: драмаArtist: R.J. CutlerName: Если я останусь

    -

    MediaInfo

    ОбщееПолное имя : E:\iPhone Releases\If I Stay.m4vФормат : MPEG-4Профиль формата : Base MediaИдентификатор кодека : isomРазмер файла : 1,54 ГбайтПродолжительность : 1 ч. 46 м.Режим общего битрейта : ПеременныйОбщий поток : 2067 Кбит/секНазвание фильма : Если я останусьИсполнитель : R.J. CutlerЖанр : драмаТип содержимого : Short FilmОписание : Мия - талантливая девушка, влюбленная в классическую музыку, в свою виолончель и рокера Адама. Но после автокатастрофы Мия оказывается в коме. Пока тело девушки лежит в больнице, ее душа должна решить, хочет ли она жить дальше или же лучше отправитьсДата записи : 2014-08-22Дата кодирования : UTC 2014-12-02 16:07:17Дата пометки : UTC 2014-12-02 16:11:41Программа кодирования : MkvToMp4 [www.mkvtomp4.ru] version: 0.224 (x64)Обложка : YesTitle/Sort : If I StayLongDescription : Мия - талантливая девушка, влюбленная в классическую музыку, в свою виолончель и рокера Адама. Но после автокатастрофы Мия оказывается в коме. Пока тело девушки лежит в больнице, ее душа должна решить, хочет ли она жить дальше или же лучше отправиться в мир иной вслед за своими родными.AppleStoreCatalogID : 463860Vendor : Apple:vendor_id:2014-tt1355630ContentRating : mpaa|PG-13|300|iTunMOVI : <?xml version="1.0" encoding="UTF-8"?> / <!DOCTYPE plist PUBLIC "-//Apple//DTD PLIST 1.0//EN" "http://anonym.to/?http://anonym.to/?http://www.apple.com/DTDs/PropertyList-1.0.dtd"> / <plist version="1.0"> / <dict> / <key>cast</key> / <array> / <dict> / <key>name</key> / <string>Хлоя Грейс Морец</string> / </dict> / <dict> / <key>name</key> / <string>Мирей Инос</string> / </dict> / <dict> / <key>name</key> / <string>Джейми Блэкли</string> / </dict> / <dict> / <key>name</key> / <string>Джошуа Леонард</string> / </dict> / <dict> / <key>name</key> / <string>Лиана Либерато</string> / </dict> / <dict> / <key>name</key> / <string>Стейси Кич</string> / </dict> / <dict> / <key>name</key> / <string>Габриель Роз</string> / </dict> / <dict> / <key>name</key> / <string>Джейкоб Дейвис</string> / </dict> / <dict> / <key>name</key> / <string>Али Милнер</string> / </dict> / <dict> / <key>name</key> / <string>Аиша Хиндс</string> / </dict> / </array> / <key>directors</key> / <array> / <dict> / <key>name</key> / <string>Р.Дж. Катлер</string> / </dict> / </array> / <key>producers</key> / <array> / <dict> / <key>name</key> / <string>Денис Ди Нови</string> / </dict> / <dict> / <key>name</key> / <string>Элисон Гринспен</string> / </dict> / <dict> / <key>name</key> / <string>Гейл Форман</string> / </dict> / </array> / <key>screenwriters</key> / <array> / <dict> / <key>name</key> / <string>Шона Кросс</string> / </dict> / <dict> / <key>name</key> / <string>Гейл Форман</string> / </dict> / </array> / </dict> / </plist>
    ВидеоИдентификатор : 1Формат : AVCФормат/Информация : Advanced Video CodecПрофиль формата : Baseline@L3.0Параметр CABAC формата : НетПараметр ReFrames формата : 3 кадраИдентификатор кодека : avc1Идентификатор кодека/Информация : Advanced Video CodingПродолжительность : 1 ч. 46 м.Битрейт : 1800 Кбит/секМаксимальный битрейт : 8331 Кбит/секШирина : 640 пикселейВысота : 354 пикселяСоотношение сторон : 2,40:1Режим частоты кадров : ПеременныйЧастота кадров : 23,976 кадра/секМинимальная частота кадров : 15,944 кадров/секМаксимальная частота кадров : 23,992 кадра/секЦветовое пространство : YUVСубдискретизация насыщенности : 4:2:0Битовая глубина : 8 битТип развёртки : ПрогрессивнаяБит/(Пиксели*Кадры) : 0.331Размер потока : 1,34 Гбайт (87%)Библиотека кодирования : x264 core 142 r2479 dd79a61Настройки программы : cabac=0 / ref=3 / deblock=1:-1:-1 / analyse=0x1:0x111 / me=umh / subme=8 / psy=1 / psy_rd=1.00:0.15 / mixed_ref=1 / me_range=16 / chroma_me=1 / trellis=0 / 8x8dct=0 / cqm=0 / deadzone=21,11 / fast_pskip=1 / chroma_qp_offset=-2 / threads=6 / lookahead_threads=1 / sliced_threads=0 / nr=0 / decimate=1 / interlaced=0 / bluray_compat=0 / constrained_intra=0 / bframes=0 / weightp=0 / keyint=240 / keyint_min=24 / scenecut=40 / intra_refresh=0 / rc_lookahead=40 / rc=2pass / mbtree=1 / bitrate=1800 / ratetol=1.0 / qcomp=0.60 / qpmin=0 / qpmax=69 / qpstep=4 / cplxblur=20.0 / qblur=0.5 / vbv_maxrate=5000 / vbv_bufsize=5000 / nal_hrd=none / filler=0 / ip_ratio=1.40 / aq=1:1.00Язык : EnglishДата кодирования : UTC 2014-12-02 16:07:17Дата пометки : UTC 2014-12-02 16:09:37Основные цвета : BT.709Характеристики трансфера : BT.709Коэффициенты матрицы : BT.709
    Аудио #1Идентификатор : 2Формат : AACФормат/Информация : Advanced Audio CodecПрофиль формата : LCИдентификатор кодека : 40Продолжительность : 1 ч. 46 м.Вид битрейта : ПеременныйБитрейт : 128 Кбит/секМаксимальный битрейт : 155 Кбит/секКаналы : 2 каналаРасположение каналов : Front: L RЧастота : 48,0 КГцМетод сжатия : С потерямиРазмер потока : 97,7 Мбайт (6%)Заголовок : StereoЯзык : RussianДата кодирования : UTC 2014-12-02 16:09:08Дата пометки : UTC 2014-12-02 16:09:37
    Аудио #2Идентификатор : 3Формат : AACФормат/Информация : Advanced Audio CodecПрофиль формата : LCИдентификатор кодека : 40Продолжительность : 1 ч. 46 м.Вид битрейта : ПеременныйБитрейт : 128 Кбит/секМаксимальный битрейт : 155 Кбит/секКаналы : 2 каналаРасположение каналов : Front: L RЧастота : 48,0 КГцМетод сжатия : С потерямиРазмер потока : 97,7 Мбайт (6%)Заголовок : StereoЯзык : EnglishДата кодирования : UTC 2014-12-02 16:09:22Дата пометки : UTC 2014-12-02 16:09:37
    Текст #1Идентификатор : 4Формат : Timed TextРежим смешивания : sbtlИдентификатор кодека : tx3gПродолжительность : 1 ч. 40 м.Вид битрейта : ПеременныйБитрейт : 90 бит/секРазмер потока : 66,2 Кбайт (0%)Язык : RussianДата кодирования : UTC 2014-12-02 16:09:37Дата пометки : UTC 2014-12-02 16:09:37
    Текст #2Идентификатор : 5Формат : Timed TextРежим смешивания : sbtlИдентификатор кодека : tx3gПродолжительность : 1 ч. 46 м.Вид битрейта : ПеременныйБитрейт : 75 бит/секРазмер потока : 58,6 Кбайт (0%)Язык : EnglishДата кодирования : UTC 2014-12-02 16:09:37Дата пометки : UTC 2014-12-02 16:09:37
    МенюИдентификатор : 6Идентификатор кодека : textПродолжительность : 1 ч. 46 м.Дата кодирования : UTC 2014-12-02 16:11:41Дата пометки : UTC 2014-12-02 16:11:41Вид битрейта : CBR

    -

    x264 лог

    x264 [info]: frame I:1660 Avg QP:12.61 size: 43066x264 [info]: frame P:151792 Avg QP:14.82 size: 9013x264 [info]: mb I I16..4: 18.8% 0.0% 81.2%x264 [info]: mb P I16..4: 0.8% 0.0% 3.2% P16..4: 40.5% 28.5% 12.3% 0.0% 0.0% skip:14.8%x264 [info]: coded y,uvDC,uvAC intra: 73.5% 88.6% 77.8% inter: 34.3% 28.2% 11.7%x264 [info]: i16 v,h,dc,p: 49% 11% 9% 31%x264 [info]: i4 v,h,dc,ddl,ddr,vr,hd,vl,hu: 34% 4% 6% 9% 11% 13% 8% 10% 6%x264 [info]: i8c dc,h,v,p: 46% 13% 33% 8%x264 [info]: ref P L0: 68.9% 18.3% 12.7%x264 [info]: kb/s:1799.34

    -

    Скриншоты

    Скачать .torrent

    Скачать торрент-файл бесплатно и на максимальной скорости!

    Как скачивать? · Что такое торрент? · Рейтинг и ограничения

    !ВНИМАНИЕ!
    Сайт не распространяет и не хранит электронные версии произведений, а занимается лишь лишь предоставлением доступа к создаваемому пользователями каталогу ссылок на торрент-файлы, которые содержат только списки хеш-сумм, убедительная просьба с жалобами обращаться напрямую к пользователю. Файлы для обмена на трекере предоставлены пользователями сайта, и администрация не несёт ответственности за их содержание. Просьба не заливать файлы, защищенные авторскими правами, а также файлы нелегального содержания!


    _________________
    [Профиль] [ЛС]
    Показать сообщения:    
    Ответить на тему

    Текущее время: Сегодня, в 02:34

    Часовой пояс: GMT + 2



    Вы не можете начинать темы
    Вы не можете отвечать на сообщения
    Вы не можете редактировать свои сообщения
    Вы не можете удалять свои сообщения
    Вы не можете голосовать в опросах
    Вы не можете прикреплять файлы к сообщениям
    Вы не можете скачивать файлы