BitTorrentTracker PerecTracker.org
BitTorrentTracker PerecTracker.org
    
Регистрация  ·  Вход
 
 · 
Забыли пароль?

  • Нянька по вызову / The Rebound (Барт Фрейндлих / Bart Freundlich) [2009, мелодрама, комедия, BDRip, 480p] DUB, Original + sub (eng, ger)

    Ответить на тему
     
    Автор Сообщение

    rechyn

    Создавать темы 02-Сен-2015 12:55

           

    [Цитировать]

    Нянька по вызову / The Rebound
    "Всё, что у неё уже было, у него впереди"
    6.881 / 10
    -Год выпуска: 2009
    Страна: США
    Жанр: мелодрама, комедия
    Продолжительность: 95 мин.
    Перевод:
    Профессиональный (дублированный)
    Режиссёр: Барт Фрейндлих
    Сценарий: Барт Фрейндлих
    Продюсер: Барт Фрейндлих, Марк Гилл, Роберт Кац
    Оператор: Джонатан Фриман
    Композитор: Клинт Мэнселл
    Художник: Форд Вилер, Даг Хусти, Мелисса Тот
    Монтаж: Кристофер Теллефсен
    В ролях: Кэтрин Зета-Джонс, Джастин Барта, Арт Гарфанкел, Джоанна Глисон, Линн Уитфилд, Келли Гулд, Эндрю Черри, Кейт Дженнингс Грант, Роб Керкович, Джон Шнайдер
    Сборы в России: $1 909 368
    Мировая премьера: 16 сентября 2009
    Премьера (РФ): 1 октября 2009, Top Film Distribution
    Релиз на DVD: 29 октября 2009, New Dream media
    Описание: У 25-летнего юноши начинается роман с матерью-одиночкой, живущей по соседству. Основной преградой в их отношениях становится то, что главная героиня существенно старше своего избранника.-Качество исходника: Blu-Ray 1080p (http://perectracker.org/viewtopic.php?t=3119829)
    Качество: BDRip
    Тип: 480p
    Контейнер: m4v
    Видео: 640x364@852x364 анаморф at 23.976 fps, MPEG-4 AVC, ~1400 kbps avg
    Аудио#1: Russian: 48 kHz, ААС, 2/0 (L,R), ~132.00 kbps avg |Профессиональный (дублированный)
    Аудио#2: English: 48 kHz, ААС, 2/0 (L,R), ~132.00 kbps avg-Субтитры №1: English: |Полные
    Субтитры №1: German: |Полные-
    -

    Знаете ли Вы, что...
  • Мама Арама (Джастин Барта) по сюжету фильма работает у модельера Ральфа Лорена, это является отсылкой к сериалу «Друзья» (1994-2004), там героиня Джоанны Глисон также работала на этого модельера.
    -

    iTunes Meta Tags for country us

    Name: The Rebound
    Artist: Bart Freundlich
    Genre: Comedy
    Release Date: 2009-09-16T08:00:00Z
    Description: У 25-летнего юноши начинается роман с матерью-одиночкой, живущей по соседству. Основной преградой в их отношениях становится то, что главная героиня существенно старше своего избранника.
    Long Description: У 25-летнего юноши начинается роман с матерью-одиночкой, живущей по соседству. Основной преградой в их отношениях становится то, что главная героиня существенно старше своего избранника.
    Rating: R
    Studio: A&F Productions
    Cast: Кэтрин Зета-Джонс, Джастин Барта, Арт Гарфанкел, Джоанна Глисон, Линн Уитфилд, Келли Гулд, Эндрю Черри, Кейт Дженнингс Грант, Роб Керкович, Джон Шнайдер
    Director: Барт Фрейндлих
    Producers: Барт Фрейндлих, Марк Гилл, Роберт Кац
    Screenwriters: Барт Фрейндлих
    Copyright: © 2009 Rebound Distribution, LLC
    contentID: 489795413
    XID: Apple:vendor_id:2009-409250
    Sort Name: Rebound

    MediaInfo 480p Release

    Общее
    Полное имя                               : Y:\SD\The Rebound.m4v
    Формат                                   : MPEG-4
    Профиль формата                          : Base Media / Version 2
    Идентификатор кодека                     : mp42
    Размер файла                             : 1,11 Гбайт
    Продолжительность                        : 1 ч. 34 м.
    Режим общего битрейта                    : Переменный
    Общий поток                              : 1669 Кбит/сек
    Название фильма                          : The Rebound
    Исполнитель                              : Bart Freundlich
    Жанр                                     : Comedy
    Дата записи                              : UTC 2009-09-16 08:00:00
    Дата кодирования                         : UTC 2014-12-02 15:07:09
    Дата пометки                             : UTC 2014-12-06 07:08:18
    Правообладатель                          : © 2009 Rebound Distribution, LLC
    Обложка                                  : Yes
    sonm                                     : Rebound
    desc                                     : У 25-летнего юноши начинается роман с матерью-одиночкой, живущей по соседству. Основной преградой в их отношениях становится то, что главная героиня существенно старше своего избранника.
    ldes                                     : У 25-летнего юноши начинается роман с матерью-одиночкой, живущей по соседству. Основной преградой в их отношениях становится то, что главная героиня существенно старше своего избранника.
    stik                                     : 9
    rtng                                     : 0
    cnID                                     : 489795413
    xid                                      : Apple:vendor_id:2009-409250
    iTunEXTC                                 : mpaa|R|400|
    iTunMOVI                                 : <?xml version="1.0" encoding="UTF-8"?> / <!DOCTYPE plist PUBLIC "-//Apple//DTD PLIST 1.0//EN" "http://anonym.to/?http://www.apple.com/DTDs/PropertyList-1.0.dtd"> / <plist version="1.0"> / <dict> /  <key>cast</key> /  <array> /   <dict> /    <key>name</key> /    <string>Кэтрин Зета-Джонс</string> /   </dict> /   <dict> /    <key>name</key> /    <string>Джастин Барта</string> /   </dict> /   <dict> /    <key>name</key> /    <string>Арт Гарфанкел</string> /   </dict> /   <dict> /    <key>name</key> /    <string>Джоанна Глисон</string> /   </dict> /   <dict> /    <key>name</key> /    <string>Линн Уитфилд</string> /   </dict> /   <dict> /    <key>name</key> /    <string>Келли Гулд</string> /   </dict> /   <dict> /    <key>name</key> /    <string>Эндрю Черри</string> /   </dict> /   <dict> /    <key>name</key> /    <string>Кейт Дженнингс Грант</string> /   </dict> /   <dict> /    <key>name</key> /    <string>Роб Керкович</string> /   </dict> /   <dict> /    <key>name</key> /    <string>Джон Шнайдер</string> /   </dict> /  </array> /  <key>directors</key> /  <array> /   <dict> /    <key>name</key> /    <string>Барт Фрейндлих</string> /   </dict> /  </array> /  <key>producers</key> /  <array> /   <dict> /    <key>name</key> /    <string>Барт Фрейндлих</string> /   </dict> /   <dict> /    <key>name</key> /    <string>Марк Гилл</string> /   </dict> /   <dict> /    <key>name</key> /    <string>Роберт Кац</string> /   </dict> /  </array> /  <key>screenwriters</key> /  <array> /   <dict> /    <key>name</key> /    <string>Барт Фрейндлих</string> /   </dict> /  </array> /  <key>studio</key> /  <string>A&F Productions</string> / </dict> / </plist>
    Видео #1
    Идентификатор                            : 1
    Формат                                   : AVC
    Формат/Информация                        : Advanced Video Codec
    Профиль формата                          : Baseline@L3.0
    Параметр CABAC формата                   : Нет
    Параметр ReFrames формата                : 2 кадра
    Идентификатор кодека                     : avc1
    Идентификатор кодека/Информация          : Advanced Video Coding
    Продолжительность                        : 1 ч. 34 м.
    Вид битрейта                             : Переменный
    Битрейт                                  : 1400 Кбит/сек
    Ширина                                   : 640 пикселей
    Высота                                   : 364 пикселя
    Соотношение сторон                       : 2,35:1
    Соотношение сторон в оригинале           : 2,35:1
    Режим частоты кадров                     : Переменный
    Частота кадров                           : 23,976 кадра/сек
    Минимальная частота кадров               : 11,987 кадров/сек
    Максимальная частота кадров              : 23,981 кадра/сек
    Цветовое пространство                    : YUV
    Субдискретизация насыщенности            : 4:2:0
    Битовая глубина                          : 8 бит
    Тип развёртки                            : Прогрессивная
    Бит/(Пиксели*Кадры)                      : 0.251
    Размер потока                            : 949 Мбайт (84%)
    Библиотека кодирования                   : x264 core 130 r2273 b3065e6
    Настройки программы                      : cabac=0 / ref=2 / deblock=1:-2:-2 / analyse=0x1:0x131 / me=umh / subme=6 / psy=1 / psy_rd=0.00:0.00 / mixed_ref=1 / me_range=24 / chroma_me=1 / trellis=0 / 8x8dct=0 / cqm=0 / deadzone=21,11 / fast_pskip=0 / chroma_qp_offset=0 / threads=12 / lookahead_threads=2 / sliced_threads=0 / nr=0 / decimate=1 / interlaced=0 / bluray_compat=0 / constrained_intra=0 / bframes=0 / weightp=0 / keyint=240 / keyint_min=24 / scenecut=40 / intra_refresh=0 / rc_lookahead=40 / rc=2pass / mbtree=1 / bitrate=1400 / ratetol=1.0 / qcomp=0.60 / qpmin=0 / qpmax=69 / qpstep=4 / cplxblur=20.0 / qblur=0.5 / vbv_maxrate=5000 / vbv_bufsize=5000 / nal_hrd=none / ip_ratio=1.40 / aq=1:1.00
    Язык                                     : English
    Дата кодирования                         : UTC 2014-12-02 15:07:09
    Дата пометки                             : UTC 2014-12-02 15:46:03
    Основные цвета                           : BT.709-5, BT.1361, IEC 61966-2-4, SMPTE RP177
    Характеристики трансфера                 : BT.709-5, BT.1361
    Коэффициенты матрицы                     : BT.709-5, BT.1361, IEC 61966-2-4 709, SMPTE RP177
    Видео #2
    Идентификатор                            : 7
    Формат                                   : JPEG
    Идентификатор кодека                     : jpeg
    Продолжительность                        : 1 ч. 34 м.
    Вид битрейта                             : Переменный
    Битрейт                                  : 535 бит/сек
    Ширина                                   : 640 пикселей
    Высота                                   : 273 пикселя
    Соотношение сторон                       : 2,35:1
    Режим частоты кадров                     : Переменный
    Частота кадров                           : 0,002 кадр/сек
    Минимальная частота кадров               : 0,001 кадр/сек
    Максимальная частота кадров              : 0,004 кадр/сек
    Цветовое пространство                    : YUV
    Субдискретизация насыщенности            : 4:2:0
    Битовая глубина                          : 8 бит
    Метод сжатия                             : С потерями
    Бит/(Пиксели*Кадры)                      : 1.531
    Размер потока                            : 392 Кбайт (0%)
    Язык                                     : English
    Дата кодирования                         : UTC 2014-12-06 07:07:59
    Дата пометки                             : UTC 2014-12-06 07:07:59
    Аудио #1
    Идентификатор                            : 2
    Формат                                   : AAC
    Формат/Информация                        : Advanced Audio Codec
    Профиль формата                          : LC
    Идентификатор кодека                     : 40
    Продолжительность                        : 1 ч. 34 м.
    Вид битрейта                             : Переменный
    Битрейт                                  : 132 Кбит/сек
    Максимальный битрейт                     : 206 Кбит/сек
    Каналы                                   : 2 канала
    Расположение каналов                     : Front: L R
    Частота                                  : 48,0 КГц
    Метод сжатия                             : С потерями
    Размер потока                            : 89,2 Мбайт (8%)
    Язык                                     : Russian
    Дата кодирования                         : UTC 2014-12-06 07:07:39
    Дата пометки                             : UTC 2014-12-06 07:07:54
    Аудио #2
    Идентификатор                            : 3
    Формат                                   : AAC
    Формат/Информация                        : Advanced Audio Codec
    Профиль формата                          : LC
    Идентификатор кодека                     : 40
    Продолжительность                        : 1 ч. 34 м.
    Вид битрейта                             : Переменный
    Битрейт                                  : 132 Кбит/сек
    Максимальный битрейт                     : 207 Кбит/сек
    Каналы                                   : 2 канала
    Расположение каналов                     : Front: L R
    Частота                                  : 48,0 КГц
    Метод сжатия                             : С потерями
    Размер потока                            : 89,2 Мбайт (8%)
    Язык                                     : English
    Дата кодирования                         : UTC 2014-12-06 07:07:39
    Дата пометки                             : UTC 2014-12-06 07:07:54
    Текст #1
    Идентификатор                            : 4
    Формат                                   : Timed text
    Режим смешивания                         : sbtl
    Идентификатор кодека                     : tx3g
    Продолжительность                        : 1 ч. 30 м.
    Вид битрейта                             : Переменный
    Битрейт                                  : 66 бит/сек
    Размер потока                            : 43,9 Кбайт (0%)
    Язык                                     : English
    Дата кодирования                         : UTC 2014-12-06 07:07:39
    Дата пометки                             : UTC 2014-12-06 07:07:39
    Текст #2
    Идентификатор                            : 5
    Формат                                   : Timed text
    Режим смешивания                         : sbtl
    Идентификатор кодека                     : tx3g
    Продолжительность                        : 1 ч. 34 м.
    Вид битрейта                             : Переменный
    Битрейт                                  : 66 бит/сек
    Размер потока                            : 45,4 Кбайт (0%)
    Язык                                     : German
    Дата кодирования                         : UTC 2014-12-06 07:07:39
    Дата пометки                             : UTC 2014-12-06 07:07:39
    Текст #3
    Идентификатор                            : 6
    Формат                                   : Apple text
    Идентификатор кодека                     : text
    Продолжительность                        : 1 ч. 34 м.
    Вид битрейта                             : Переменный
    Битрейт                                  : 0 бит/сек
    Размер потока                            : 279 байт (0%)
    Язык                                     : English
    Дата кодирования                         : UTC 2014-12-06 07:07:54
    Дата пометки                             : UTC 2014-12-06 07:07:54
    Меню
    00:00:00.000                             : Chapter 1
    00:11:08.417                             : Chapter 2
    00:18:31.902                             : Chapter 3
    00:28:21.032                             : Chapter 4
    00:35:31.129                             : Chapter 5
    00:42:38.556                             : Chapter 6
    00:51:55.070                             : Chapter 7
    01:02:13.646                             : Chapter 8
    01:13:18.811                             : Chapter 9
    01:17:09.458                             : Chapter 10
    01:24:34.986                             : Chapter 11
    01:30:51.863                             : Chapter 12

    x264 лог 480p Release

    x264 [info]: frame I:1821  Avg QP:15.15  size: 33413  PSNR Mean Y:48.25 U:49.07 V:49.14 Avg:48.49 Global:47.91
    x264 [info]: frame P:134470 Avg QP:17.71  size:  6945  PSNR Mean Y:46.11 U:47.59 V:47.22 Avg:46.48 Global:46.04
    x264 [info]: mb I  I16..4: 23.1%  0.0% 76.9%
    x264 [info]: mb P  I16..4:  2.7%  0.0%  3.5%  P16..4: 48.1% 28.5%  1.6%  0.0%  1.2%    skip:14.4%
    x264 [info]: coded y,uvDC,uvAC intra: 63.1% 69.3% 47.6% inter: 28.4% 21.8% 5.9%
    x264 [info]: i16 v,h,dc,p: 47% 19% 13% 20%
    x264 [info]: i4 v,h,dc,ddl,ddr,vr,hd,vl,hu: 35% 15% 13%  5%  7%  9%  5%  7%  4%
    x264 [info]: i8c dc,h,v,p: 44% 16% 32%  8%
    x264 [info]: ref P L0: 71.7% 28.3%
    x264 [info]: SSIM Mean Y:0.9895568 (19.812db)
    x264 [info]: PSNR Mean Y:46.139 U:47.608 V:47.248 Avg:46.508 Global:46.057 kb/s:1399.99

    Скриншоты 480p Release


    -

    Релиз подготовлен для просмотра на Apple TV, iPad, iPhone, iPod Touch.
    Для просмотра данного релиза на компьютере с ОС Windows рекомендуется использовать VLC media player
    --
    Скачать .torrent

    Скачать торрент-файл бесплатно и на максимальной скорости!

    Как скачивать? · Что такое торрент? · Рейтинг и ограничения

    !ВНИМАНИЕ!
    Сайт не распространяет и не хранит электронные версии произведений, а занимается лишь лишь предоставлением доступа к создаваемому пользователями каталогу ссылок на торрент-файлы, которые содержат только списки хеш-сумм, убедительная просьба с жалобами обращаться напрямую к пользователю. Файлы для обмена на трекере предоставлены пользователями сайта, и администрация не несёт ответственности за их содержание. Просьба не заливать файлы, защищенные авторскими правами, а также файлы нелегального содержания!


  • _________________
    [Профиль] [ЛС]
    Показать сообщения:    
    Ответить на тему

    Текущее время: Сегодня, в 04:38

    Часовой пояс: GMT + 2



    Вы не можете начинать темы
    Вы не можете отвечать на сообщения
    Вы не можете редактировать свои сообщения
    Вы не можете удалять свои сообщения
    Вы не можете голосовать в опросах
    Вы не можете прикреплять файлы к сообщениям
    Вы не можете скачивать файлы