BitTorrentTracker PerecTracker.org
BitTorrentTracker PerecTracker.org
    
Регистрация  ·  Вход
 
 · 
Забыли пароль?

  • [iPad] Дальше живите сами / This Is Where I Leave You (Шон Леви / Shawn Levy ) [2014, США, Драма, мелодрама, комедия, BDRip, SD (576p)] MVO + Original + sub (rus, eng)

    Ответить на тему
     
    Автор Сообщение

    rechyn

    Создавать темы 02-Сен-2015 12:55

           

    [Цитировать]

    Дальше живите сами / This Is Where I Leave You
    «Welcome Home. Get Uncomfortable»
    6.605 / 10 6.70 / 10
    -Год выпуска: 2014
    Страна: США
    Жанр: Драма, мелодрама, комедия
    Продолжительность: 01:43:19
    Перевод: Профессиональный (многоголосый закадровый) (Лицензия)
    Оригинальная аудиодорожка: Есть
    Cубтитры: Русские, Английские
    Режиссёр: Шон Леви
    Сценарий: Джонатан Троппер
    Продюсер: Jeff Levine, Шон Леви, Паула Вайнштейн
    Оператор: Терри Стэйси
    Композитор: Майкл Джаккино
    Художник: Форд Вилер, Генри Данн, Сьюзэн Лайолл
    Монтаж: Дин Зиммерман
    В ролях: Джейсон Бейтман, Тина Фей, Адам Драйвер, Роуз Бирн, Кори Столл, Кэтрин Хан, Конни Бриттон, Тимоти Олифант, Дэкс Шепард, Джейн Фонда
    Бюджет: $19 800 000
    Сборы в США: $34 296 320
    Сборы в мире: + $4 298 000 = $38 594 320
    Мировая премьера: 7 сентября 2014
    Релиз на DVD: 11 декабря 2014, «CP Дистрибуция»
    Описание: Смерть отца собирает вместе его детей, уже повзрослевших и покинувших родные края. Им предстоит провести в родительском доме неделю траура, исполняя последнее желание своего отца. Это будет очень нелегко. Забытые обиды и недосказанные слова начинают всплывать на поверхность. Но общее горе поможет семье сплотиться и по-иному взглянуть на своё прошлое.-Качество исходника: BDRemux
    Качество: BDRip
    Тип: SD (576p)
    Контейнер: M4V
    Видео: H.264, 1024x432, 2.40:1, 2 200 Kbps, 23.976 fps
    Аудио 1: Русский/Профессиональный (многоголосый закадровый) (Лицензия), AAC / 2.0 / 132 Kbps / 48.0 KHz
    Аудио 2: Английский/Оригинальная дорожка , AAC / 2.0 / 130 Kbps / 48.0 KHz
    Субтитры 1: Русские полные
    Субтитры 2: Английские полные
    -

    iTunes Meta Tags

    Media Type: Movie
    Sort Name: This is Where I Leave You
    XID: Apple:vendor_id:2014-463356
    Content ID: 913804943
    Copyright: © 2014 Warner Bros. Entertainment Inc. и Ratpac-Dune Entertainment LLC. Все права защищены.
    ScreenWriters: Джонатан Троппер
    Producers: Jeff Levine, Шон Леви, Паула Вайнштейн
    Director: Шон Леви
    Cast: Джейсон Бейтман, Тина Фей, Адам Драйвер, Роуз Бирн, Кори Столл, Кэтрин Хан, Конни Бриттон, Тимоти Олифант, Дэкс Шепард, Джейн Фонда
    Long Description: Еврейская семья, которая не особо привыкла соблюдать традиции своей веры, вынуждена выполнить последнее желание своего отца - им нужно будет провести вместе период траура, целую неделю, и решить свои проблемы.
    Description: Еврейская семья, которая не особо привыкла соблюдать традиции своей веры, вынуждена выполнить последнее желание своего отца
    Release Date: 2014-09-07T08:00:00Z
    Genre: Drama
    Artist: Shawn Levy
    Name: This is Where I Leave You

    MediaInfo

    General
    Complete name                            : C:\\Handbrake\\Dalshe.zhivite.sami.(SD).(pk).m4v
    Format                                   : MPEG-4
    Codec ID                                 : M4V
    File size                                : 1.78 GiB
    Duration                                 : 1h 43mn
    Overall bit rate mode                    : Variable
    Overall bit rate                         : 2 469 Kbps
    Movie name                               : This is Where I Leave You
    Performer                                : Shawn Levy
    Director                                 : Шон Леви
    Actor                                    : Джейсон Бейтман / Тина Фей / Адам Драйвер / Роуз Бирн / Кори Столл / Кэтрин Хан / Конни Бриттон / Тимоти Олифант / Дэкс Шепард / Джейн Фонда
    Screenplay by                            : Джонатан Троппер
    Producer                                 : Jeff Levine / Шон Леви / Паула Вайнштейн
    Genre                                    : Drama
    ContentType                              : Short Film
    Description                              : Еврейская семья, которая не особо привыкла соблюдать традиции своей веры, вынуждена выполнить последнее желание своего отца
    Recorded date                            : UTC 2014-09-07 08:00:00
    Encoded date                             : UTC 2014-12-07 08:52:27
    Tagged date                              : UTC 2014-12-07 08:53:54
    Writing application                      : MkvToMp4 [www.mkvtomp4.ru] version 0.222
    Copyright                                : © 2014 Warner Bros. Entertainment Inc. и Ratpac-Dune Entertainment LLC. Все права защищены.
    Service name                             : AOL
    Cover                                    : Yes
    Title/Sort                               : This is Where I Leave You
    LongDescription                          : Еврейская семья, которая не особо привыкла соблюдать традиции своей веры, вынуждена выполнить последнее желание своего отца - им нужно будет провести вместе период траура, целую неделю, и решить свои проблемы.
    AppleStoreAccountType                    : AOL
    AppleStoreCountry                        : Unknown Country
    AppleStoreCatalogID                      : 913804943
    Vendor                                   : Apple:vendor_id:2014-463356
    ContentRating                            : mpaa|R|400|
    Video
    ID                                       : 1
    Format                                   : AVC
    Format/Info                              : Advanced Video Codec
    Format profile                           : High@L3.1
    Format settings, CABAC                   : Yes
    Format settings, ReFrames                : 9 frames
    Codec ID                                 : avc1
    Codec ID/Info                            : Advanced Video Coding
    Duration                                 : 1h 43mn
    Bit rate                                 : 2 200 Kbps
    Maximum bit rate                         : 10.6 Mbps
    Width                                    : 1 024 pixels
    Height                                   : 432 pixels
    Display aspect ratio                     : 2.40:1
    Frame rate mode                          : Variable
    Frame rate                               : 23.976 fps
    Minimum frame rate                       : 23.810 fps
    Maximum frame rate                       : 24.272 fps
    Color space                              : YUV
    Chroma subsampling                       : 4:2:0
    Bit depth                                : 8 bits
    Scan type                                : Progressive
    Bits/(Pixel*Frame)                       : 0.207
    Stream size                              : 1.59 GiB (89%)
    Writing library                          : x264 core 130 r2273 b3065e6
    Encoding settings                        : cabac=1 / ref=9 / deblock=1:0:0 / analyse=0x3:0x113 / me=umh / subme=9 / psy=1 / psy_rd=1.00:0.00 / mixed_ref=1 / me_range=32 / chroma_me=1 / trellis=1 / 8x8dct=1 / cqm=0 / deadzone=21,11 / fast_pskip=1 / chroma_qp_offset=-2 / threads=12 / lookahead_threads=1 / sliced_threads=0 / nr=0 / decimate=1 / interlaced=0 / bluray_compat=0 / constrained_intra=0 / bframes=6 / b_pyramid=2 / b_adapt=2 / b_bias=0 / direct=1 / weightb=1 / open_gop=0 / weightp=2 / keyint=240 / keyint_min=24 / scenecut=40 / intra_refresh=0 / rc_lookahead=40 / rc=2pass / mbtree=1 / bitrate=2200 / ratetol=1.0 / qcomp=0.60 / qpmin=0 / qpmax=69 / qpstep=4 / cplxblur=20.0 / qblur=0.5 / ip_ratio=1.40 / aq=1:1.00
    Language                                 : English
    Encoded date                             : UTC 2014-12-07 08:52:27
    Tagged date                              : UTC 2014-12-07 08:53:33
    Color primaries                          : BT.709
    Transfer characteristics                 : BT.709
    Matrix coefficients                      : BT.709
    Color range                              : Limited
    Audio #1
    ID                                       : 2
    Format                                   : AAC
    Format/Info                              : Advanced Audio Codec
    Format profile                           : LC
    Codec ID                                 : 40
    Duration                                 : 1h 43mn
    Bit rate mode                            : Variable
    Bit rate                                 : 132 Kbps
    Maximum bit rate                         : 186 Kbps
    Channel(s)                               : 2 channels
    Channel positions                        : Front: L R
    Sampling rate                            : 48.0 KHz
    Compression mode                         : Lossy
    Stream size                              : 97.7 MiB (5%)
    Language                                 : Russian
    Encoded date                             : UTC 2014-12-07 08:52:59
    Tagged date                              : UTC 2014-12-07 08:53:33
    Audio #2
    ID                                       : 3
    Format                                   : AAC
    Format/Info                              : Advanced Audio Codec
    Format profile                           : LC
    Codec ID                                 : 40
    Duration                                 : 1h 43mn
    Bit rate mode                            : Variable
    Bit rate                                 : 130 Kbps
    Maximum bit rate                         : 192 Kbps
    Channel(s)                               : 2 channels
    Channel positions                        : Front: L R
    Sampling rate                            : 48.0 KHz
    Compression mode                         : Lossy
    Stream size                              : 95.8 MiB (5%)
    Language                                 : English
    Encoded date                             : UTC 2014-12-07 08:53:16
    Tagged date                              : UTC 2014-12-07 08:53:33
    Text #1
    ID                                       : 4
    Format                                   : Timed Text
    Muxing mode                              : sbtl
    Codec ID                                 : tx3g
    Duration                                 : 1h 43mn
    Bit rate mode                            : Variable
    Bit rate                                 : 134 bps
    Stream size                              : 101 KiB (0%)
    Language                                 : Russian
    Encoded date                             : UTC 2014-12-07 08:53:33
    Tagged date                              : UTC 2014-12-07 08:53:33
    Text #2
    ID                                       : 5
    Format                                   : Timed Text
    Muxing mode                              : sbtl
    Codec ID                                 : tx3g
    Duration                                 : 1h 43mn
    Bit rate mode                            : Variable
    Bit rate                                 : 100 bps
    Stream size                              : 75.7 KiB (0%)
    Language                                 : English
    Encoded date                             : UTC 2014-12-07 08:53:33
    Tagged date                              : UTC 2014-12-07 08:53:33
    Menu
    ID                                       : 6
    Codec ID                                 : text
    Duration                                 : 1h 43mn
    Encoded date                             : UTC 2014-12-07 08:53:49
    Tagged date                              : UTC 2014-12-07 08:53:49
    00:00:00.000                             : Chapter 1
    00:09:09.799                             : Chapter 2
    00:21:54.688                             : Chapter 3
    00:30:50.432                             : Chapter 4
    00:39:28.950                             : Chapter 5
    00:50:38.327                             : Chapter 6
    01:01:14.337                             : Chapter 7
    01:09:18.404                             : Chapter 8
    01:20:55.517                             : Chapter 9
    01:29:12.597                             : Chapter 10
    01:40:07.418                             : Chapter 11
    Bit rate mode                            : VBR

    x264 лог

    x264 [info]: frame I:1847  Avg QP:14.03  size: 85593  PSNR Mean Y:48.59 U:50.09 V:51.30 Avg:49.17 Global:48.89
    x264 [info]: frame P:31308 Avg QP:16.78  size: 26227  PSNR Mean Y:46.04 U:47.74 V:49.51 Avg:46.71 Global:46.26
    x264 [info]: frame B:115462 Avg QP:19.58  size:  6281  PSNR Mean Y:44.81 U:47.01 V:49.28 Avg:45.60 Global:45.16
    x264 [info]: consecutive B-frames:  2.2%  1.8%  5.0% 22.4% 22.6% 35.1% 10.9%
    x264 [info]: mb I  I16..4:  8.0% 67.7% 24.3%
    x264 [info]: mb P  I16..4:  0.8%  6.5%  1.9%  P16..4: 36.3% 29.3% 18.5%  0.0%  0.0%    skip: 6.7%
    x264 [info]: mb B  I16..4:  0.1%  0.6%  0.1%  B16..8: 39.7% 10.0%  3.0%  direct: 3.8%  skip:42.8%  L0:44.6% L1:45.2% BI:10.2%
    x264 [info]: 8x8 transform intra:70.3% inter:66.3%
    x264 [info]: coded y,uvDC,uvAC intra: 91.6% 90.5% 77.7% inter: 26.3% 26.2% 9.4%
    x264 [info]: i16 v,h,dc,p: 35% 13%  7% 46%
    x264 [info]: i8 v,h,dc,ddl,ddr,vr,hd,vl,hu: 12%  8%  4% 10% 14% 15% 12% 13% 12%
    x264 [info]: i4 v,h,dc,ddl,ddr,vr,hd,vl,hu: 11%  8%  3%  9% 15% 16% 13% 13% 12%
    x264 [info]: i8c dc,h,v,p: 46% 18% 19% 17%
    x264 [info]: Weighted P-Frames: Y:2.4% UV:1.3%
    x264 [info]: ref P L0: 45.5% 10.9% 19.0%  6.3%  6.2%  3.8%  4.0%  1.9%  2.3%  0.2%  0.0%
    x264 [info]: ref B L0: 69.6% 14.0%  6.5%  3.6%  2.5%  2.2%  1.1%  0.4%
    x264 [info]: ref B L1: 91.4%  8.6%
    x264 [info]: SSIM Mean Y:0.9827589 (17.634db)
    x264 [info]: PSNR Mean Y:45.114 U:47.202 V:49.355 Avg:45.881 Global:45.406 kb/s:2199.71

    Скриншоты

    -

    Релиз подготовлен для просмотра на Apple TV, iPad, iPhone, iPod Touch.
    Для просмотра данного релиза на компьютере с ОС Windows рекомендуется использовать VLC media player
    Скачать .torrent

    Скачать торрент-файл бесплатно и на максимальной скорости!

    Как скачивать? · Что такое торрент? · Рейтинг и ограничения

    !ВНИМАНИЕ!
    Сайт не распространяет и не хранит электронные версии произведений, а занимается лишь лишь предоставлением доступа к создаваемому пользователями каталогу ссылок на торрент-файлы, которые содержат только списки хеш-сумм, убедительная просьба с жалобами обращаться напрямую к пользователю. Файлы для обмена на трекере предоставлены пользователями сайта, и администрация не несёт ответственности за их содержание. Просьба не заливать файлы, защищенные авторскими правами, а также файлы нелегального содержания!


    _________________
    [Профиль] [ЛС]
    Показать сообщения:    
    Ответить на тему

    Текущее время: Сегодня, в 22:04

    Часовой пояс: GMT + 2



    Вы не можете начинать темы
    Вы не можете отвечать на сообщения
    Вы не можете редактировать свои сообщения
    Вы не можете удалять свои сообщения
    Вы не можете голосовать в опросах
    Вы не можете прикреплять файлы к сообщениям
    Вы не можете скачивать файлы