BitTorrentTracker PerecTracker.org
BitTorrentTracker PerecTracker.org
    
Регистрация  ·  Вход
 
 · 
Забыли пароль?

  • [iPad] Секс на две ночи / Two Night Stand (Макс Николс / Max Nichols ) [2014, США, Мелодрама, комедия, WEB-DLRip, SD (576p)] MVO + Original + sub (eng)

    Ответить на тему
     
    Автор Сообщение

    rechyn

    Создавать темы 02-Сен-2015 12:55

           

    [Цитировать]

    Секс на две ночи / Two Night Stand
    «Before love. After sex»
    6.664 / 10 6.40 / 10
    -Год выпуска: 2014
    Страна: США
    Жанр: Мелодрама, комедия
    Продолжительность: 01:26:13
    Перевод: Профессиональный (многоголосый закадровый)
    Оригинальная аудиодорожка: Есть
    Cубтитры: Английские
    Режиссёр: Макс Николс
    Сценарий: Марк Хаммер
    Продюсер: Сэм Энглебардт, Рубен Флейшер, Бо Флинн
    Оператор: Бобби Буковски
    Композитор: Мэттью Де Люка, Мэттью и Нил де Лука, Нил Де Люка
    Художник: Молли Хьюз, Эми Рот, Майкл Б. Льюис
    Монтаж: Мэтт Гарнер
    В ролях: Майлз Теллер, Анали Типтон, Джессика Зор, Скотт Мескади, Берто Колон, Джош Салатин, Келлин Линдсэй, Майкл Шоуолтер, Ливэн Рамбин, Джои Лорен Эдамс
    Сборы в США: $18 612
    Мировая премьера: 25 сентября 2014
    Релиз на DVD: 20 ноября 2014, «CP Дистрибуция»
    Описание: Девушка застряла дома у парня на целый день из-за ужасного снежного шторма. Благодаря этому несчастному случаю молодые люди получают возможность познакомиться поближе.-Качество исходника: WEB-DL 1080p
    Качество: WEB-DLRip
    Тип: SD (576p)
    Контейнер: M4V
    Видео: H.264, 1024x432, 2.40:1, 2 200 Kbps, 23.976 fps
    Аудио 1: Русский/Профессиональный (многоголосый закадровый) , AAC / 2.0 / 144 Kbps / 48.0 KHz
    Аудио 2: Английский/Оригинальная дорожка , AAC / 2.0 / 126 Kbps / 48.0 KHz
    Субтитры: Английские полные
    -

    iTunes Meta Tags

    Media Type: Movie
    Sort Name: Two Night Stand
    XID: Apple:vendor_id:2014-687266
    Content ID: 917018032
    Copyright: © 2014, Entertainment One Film USA LLC, All Rights Reserved.
    ScreenWriters: Марк Хаммер
    Producers: Сэм Энглебардт, Рубен Флейшер, Бо Флинн
    Director: Макс Николс
    Cast: Анали Типтон, Майлз Теллер, Джессика Зор, Скотт Мескади, Берто Колон, Джош Салатин, Келлин Линдсэй, Майкл Шоуолтер, Ливэн Рамбин, Джои Лорен Эдамс
    Rating: R
    Long Description: Девушка застряла дома у парня на целый день из-за ужасного снежного шторма. Благодаря этому несчастному случаю молодые люди получают возможность познакомиться поближе.
    Description: Девушка застряла дома у парня на целый день из-за ужасного снежного шторма.
    Release Date: 2014-09-25T08:00:00Z
    Genre: Comedy
    Artist: Max Nichols
    Name: Two Night Stand

    MediaInfo

    General
    Complete name                            : C:\\Handbrake\\Two.Night.Stand.(SD).(pk).m4v
    Format                                   : MPEG-4
    Codec ID                                 : M4V
    File size                                : 1.49 GiB
    Duration                                 : 1h 26mn
    Overall bit rate mode                    : Variable
    Overall bit rate                         : 2 475 Kbps
    Movie name                               : Two Night Stand
    Performer                                : Max Nichols
    Director                                 : Макс Николс
    Actor                                    : Анали Типтон / Майлз Теллер / Джессика Зор / Скотт Мескади / Берто Колон / Джош Салатин / Келлин Линдсэй / Майкл Шоуолтер / Ливэн Рамбин / Джои Лорен Эдамс
    Screenplay by                            : Марк Хаммер
    Producer                                 : Сэм Энглебардт / Рубен Флейшер / Бо Флинн
    Genre                                    : Comedy
    ContentType                              : Short Film
    Description                              : Девушка застряла дома у парня на целый день из-за ужасного снежного шторма.
    Recorded date                            : UTC 2014-09-25 08:00:00
    Encoded date                             : UTC 2014-12-12 08:23:24
    Tagged date                              : UTC 2014-12-12 08:24:05
    Writing application                      : MkvToMp4 [www.mkvtomp4.ru] version 0.222
    Copyright                                : © 2014, Entertainment One Film USA LLC, All Rights Reserved.
    Service name                             : AOL
    Cover                                    : Yes
    Title/Sort                               : Two Night Stand
    LongDescription                          : Девушка застряла дома у парня на целый день из-за ужасного снежного шторма. Благодаря этому несчастному случаю молодые люди получают возможность познакомиться поближе.
    AppleStoreAccountType                    : AOL
    AppleStoreCountry                        : Unknown Country
    AppleStoreCatalogID                      : 917018032
    Vendor                                   : Apple:vendor_id:2014-687266
    ContentRating                            : mpaa|R|400|
    Video
    ID                                       : 1
    Format                                   : AVC
    Format/Info                              : Advanced Video Codec
    Format profile                           : High@L3.1
    Format settings, CABAC                   : Yes
    Format settings, ReFrames                : 9 frames
    Codec ID                                 : avc1
    Codec ID/Info                            : Advanced Video Coding
    Duration                                 : 1h 26mn
    Bit rate                                 : 2 200 Kbps
    Maximum bit rate                         : 8 032 Kbps
    Width                                    : 1 024 pixels
    Height                                   : 432 pixels
    Display aspect ratio                     : 2.40:1
    Frame rate mode                          : Variable
    Frame rate                               : 23.976 fps
    Minimum frame rate                       : 4.805 fps
    Maximum frame rate                       : 24.390 fps
    Color space                              : YUV
    Chroma subsampling                       : 4:2:0
    Bit depth                                : 8 bits
    Scan type                                : Progressive
    Bits/(Pixel*Frame)                       : 0.207
    Stream size                              : 1.32 GiB (89%)
    Writing library                          : x264 core 142 r2479 dd79a61
    Encoding settings                        : cabac=1 / ref=9 / deblock=1:0:0 / analyse=0x3:0x113 / me=umh / subme=9 / psy=1 / psy_rd=1.00:0.00 / mixed_ref=1 / me_range=32 / chroma_me=1 / trellis=1 / 8x8dct=1 / cqm=0 / deadzone=21,11 / fast_pskip=1 / chroma_qp_offset=-2 / threads=12 / lookahead_threads=1 / sliced_threads=0 / nr=0 / decimate=1 / interlaced=0 / bluray_compat=0 / constrained_intra=0 / bframes=6 / b_pyramid=2 / b_adapt=2 / b_bias=0 / direct=1 / weightb=1 / open_gop=0 / weightp=2 / keyint=240 / keyint_min=24 / scenecut=40 / intra_refresh=0 / rc_lookahead=40 / rc=2pass / mbtree=1 / bitrate=2200 / ratetol=1.0 / qcomp=0.60 / qpmin=0 / qpmax=69 / qpstep=4 / cplxblur=20.0 / qblur=0.5 / ip_ratio=1.40 / aq=1:1.00
    Language                                 : English
    Encoded date                             : UTC 2014-12-12 08:23:24
    Tagged date                              : UTC 2014-12-12 08:23:42
    Color primaries                          : BT.709
    Transfer characteristics                 : BT.709
    Matrix coefficients                      : BT.709
    Color range                              : Limited
    Audio #1
    ID                                       : 2
    Format                                   : AAC
    Format/Info                              : Advanced Audio Codec
    Format profile                           : LC
    Codec ID                                 : 40
    Duration                                 : 1h 26mn
    Bit rate mode                            : Variable
    Bit rate                                 : 144 Kbps
    Maximum bit rate                         : 217 Kbps
    Channel(s)                               : 2 channels
    Channel positions                        : Front: L R
    Sampling rate                            : 48.0 KHz
    Compression mode                         : Lossy
    Stream size                              : 90.1 MiB (6%)
    Title                                    : Stereo / Stereo
    Language                                 : Russian
    Encoded date                             : UTC 2014-12-12 08:23:40
    Tagged date                              : UTC 2014-12-12 08:23:42
    Audio #2
    ID                                       : 3
    Format                                   : AAC
    Format/Info                              : Advanced Audio Codec
    Format profile                           : LC
    Codec ID                                 : 40
    Duration                                 : 1h 26mn
    Bit rate mode                            : Variable
    Bit rate                                 : 126 Kbps
    Maximum bit rate                         : 186 Kbps
    Channel(s)                               : 2 channels
    Channel positions                        : Front: L R
    Sampling rate                            : 48.0 KHz
    Compression mode                         : Lossy
    Stream size                              : 77.6 MiB (5%)
    Title                                    : Stereo / Stereo
    Language                                 : English
    Encoded date                             : UTC 2014-12-12 08:23:41
    Tagged date                              : UTC 2014-12-12 08:23:42
    Text
    ID                                       : 4
    Format                                   : Timed Text
    Muxing mode                              : sbtl
    Codec ID                                 : tx3g
    Duration                                 : 1h 22mn
    Bit rate mode                            : Variable
    Bit rate                                 : 86 bps
    Stream size                              : 52.2 KiB (0%)
    Language                                 : English
    Encoded date                             : UTC 2014-12-12 08:23:42
    Tagged date                              : UTC 2014-12-12 08:23:42
    Menu
    ID                                       : 5
    Codec ID                                 : text
    Duration                                 : 1h 26mn
    Encoded date                             : UTC 2014-12-12 08:24:01
    Tagged date                              : UTC 2014-12-12 08:24:01
    Bit rate mode                            : CBR
    00:00:00.000                             : Chapter 1
    00:08:41.229                             : Chapter 2
    00:20:16.299                             : Chapter 3
    00:31:39.232                             : Chapter 4
    00:41:07.258                             : Chapter 5
    00:50:43.167                             : Chapter 6
    01:00:57.240                             : Chapter 7
    01:12:22.216                             : Chapter 8
    01:22:37.331                             : Chapter 9

    x264 лог

    x264 [info]: frame I:1172  Avg QP:10.67  size: 80187
    x264 [info]: frame P:31982 Avg QP:13.27  size: 24458
    x264 [info]: frame B:90874 Avg QP:15.98  size:  5987
    x264 [info]: consecutive B-frames:  1.6%  3.0%  5.3% 81.1%  4.4%  3.1%  1.5%
    x264 [info]: mb I  I16..4: 11.9% 65.0% 23.1%
    x264 [info]: mb P  I16..4:  2.4%  9.2%  2.1%  P16..4: 29.6% 28.5% 18.6%  0.0%  0.0%    skip: 9.6%
    x264 [info]: mb B  I16..4:  0.5%  1.1%  0.2%  B16..8: 31.6% 11.5%  3.3%  direct: 7.9%  skip:43.8%  L0:38.9% L1:46.3% BI:14.9%
    x264 [info]: 8x8 transform intra:65.5% inter:65.8%
    x264 [info]: coded y,uvDC,uvAC intra: 69.7% 91.8% 84.0% inter: 20.7% 40.0% 18.9%
    x264 [info]: i16 v,h,dc,p: 49% 15%  9% 27%
    x264 [info]: i8 v,h,dc,ddl,ddr,vr,hd,vl,hu: 16% 10% 17%  7%  9% 11%  9% 10% 10%
    x264 [info]: i4 v,h,dc,ddl,ddr,vr,hd,vl,hu: 16% 10% 10%  8% 12% 13% 11% 10% 10%
    x264 [info]: i8c dc,h,v,p: 56% 15% 15% 13%
    x264 [info]: Weighted P-Frames: Y:1.3% UV:0.3%
    x264 [info]: ref P L0: 59.4%  6.2% 17.0%  5.1%  4.1%  2.6%  2.5%  1.5%  1.5%  0.1%  0.0%
    x264 [info]: ref B L0: 81.7%  9.7%  3.5%  2.0%  1.1%  1.0%  0.7%  0.3%
    x264 [info]: ref B L1: 96.0%  4.0%
    x264 [info]: kb/s:2196.44

    Скриншоты

    -

    Релиз подготовлен для просмотра на Apple TV, iPad, iPhone, iPod Touch.
    Для просмотра данного релиза на компьютере с ОС Windows рекомендуется использовать VLC media player
    Скачать .torrent

    Скачать торрент-файл бесплатно и на максимальной скорости!

    Как скачивать? · Что такое торрент? · Рейтинг и ограничения

    !ВНИМАНИЕ!
    Сайт не распространяет и не хранит электронные версии произведений, а занимается лишь лишь предоставлением доступа к создаваемому пользователями каталогу ссылок на торрент-файлы, которые содержат только списки хеш-сумм, убедительная просьба с жалобами обращаться напрямую к пользователю. Файлы для обмена на трекере предоставлены пользователями сайта, и администрация не несёт ответственности за их содержание. Просьба не заливать файлы, защищенные авторскими правами, а также файлы нелегального содержания!


    _________________
    [Профиль] [ЛС]
    Показать сообщения:    
    Ответить на тему

    Текущее время: Сегодня, в 10:35

    Часовой пояс: GMT + 2



    Вы не можете начинать темы
    Вы не можете отвечать на сообщения
    Вы не можете редактировать свои сообщения
    Вы не можете удалять свои сообщения
    Вы не можете голосовать в опросах
    Вы не можете прикреплять файлы к сообщениям
    Вы не можете скачивать файлы