BitTorrentTracker PerecTracker.org
BitTorrentTracker PerecTracker.org
    
Регистрация  ·  Вход
 
 · 
Забыли пароль?

  • Блэйд. Трилогия / Blade Trilogy (Стивен Норрингтон / Stephen Norrington, Гильермо дель Торо / Guillermo del Toro, Дэвид С. Гойер / David S. Goyer ) [1998-2004, США, ужасы, боевик, фэнтези, BDRip, 480p] Dub + AVO Гоблин + Original + sub (rus, eng)

    Ответить на тему
     
    Автор Сообщение

    rechyn

    Создавать темы 02-Сен-2015 12:55

           

    [Цитировать]

    Блэйд / Blade (1998)

    -Год выпуска: 1998
    Страна: США
    Жанр: ужасы, боевик, фэнтези
    Продолжительность: 02:00:15
    Рейтинг MPAA: R
    Рейтинг КиноПоиск: 7.4
    Рейтинг IMDb: 7.1-Перевод: Профессиональный (дублированный)
    Перевод 2: Авторский (одноголосый закадровый) Гоблин
    Оригинальная аудиодорожка: есть
    Cубтитры: русские и английские
    Режиссёр: Стивен Норрингтон / Stephen Norrington
    Сценарий: Дэвид С. Гойер
    Продюссер: Роберт Энгелман, Питер Франкфурт, Уэсли Снайпс
    В ролях: Уэсли Снайпс, Крис Кристофферсон, Стивен Дорфф, Н’Буш Райт, Донал Лог, Удо Кир, Арли Жовер, Трейси Лордс, Кевин Патрик Уоллс, Тим Гини-Описание:
    Получеловек-полувампир Блэйд намерен уничтожить виновника своей судьбы — Дьякона Фроста. Когда-то в кровь Блэйда попало совсем немного вампирского яда, но с течением времени он стал ощущать неизбежность своего превращения.
    Желая избавить людей от тайной и могущественной армии вампиров, заполонившей общество, он отправляется на решающий бой…
    -Качество исходника: BDRemux
    Качество: BDRip
    Разрешение: 480p
    Формат: M4V
    Видео: AVC at 1700 Кбит/сек, 640 x 360 (2.366) at 23.976 fps
    Аудио: AAC at 128 Кбит/сек, 2 канала, 48,0 КГц / Russian, Дубляж
    Аудио №2: AAC at 128 Кбит/сек, 2 канала, 48,0 КГц, Russian, Гоблин
    Аудио №3: AAC at 128 Кбит/сек, 2 канала, 48,0 КГц, English-

    iTunes Meta Tags

    Media Type: MovieSort Name: BladeXID: Apple:vendor_id:1998-tt0120611Content ID: 292720888ScreenWriters: Дэвид С. ГойерProducers: Роберт Энгелман, Питер Франкфурт, Уэсли СнайпсDirector: Стивен НоррингтонCast: Уэсли Снайпс, Крис Кристофферсон, Стивен Дорфф, Н’Буш Райт, Донал Лог, Удо Кир, Арли Жовер, Трейси Лордс, Кевин Патрик Уоллс, Тим ГиниRating: RLong Description: Получеловек-полувампир Блэйд (Уэсли Снайпс) намерен уничтожить виновника своей судьбы - Дьякона Фроста (Стивен Дорф). Когда-то в кровь Блэйда попало совсем немного вампирского яда, но с течением времени он стал ощущать неизбежность своего превращения. Желая избавить людей от тайной и могущественной армии вампиров, заполонивших общество, он отправляется на решающий бой...Description: Получеловек-полувампир Блэйд намерен уничтожить виновника своей судьбы - Дьякона Фроста. Желая избавить людей от тайной и могущественной армии вампиров, заполонивших общество, он отправляется на решающий бой...Release Date: 1998-12-22T08:00:00ZGenre: Action & AdventureArtist: Stephen NorringtonName: Блэйд

    -

    MediaInfo

    ОбщееПолное имя : E:\iPhone Releases\Blade\Blade.m4vФормат : MPEG-4Идентификатор кодека : M4VРазмер файла : 1,76 ГбайтПродолжительность : 2 ч. 0 м.Режим общего битрейта : ПеременныйОбщий поток : 2091 Кбит/секНазвание фильма : БлэйдИсполнитель : Stephen NorringtonЖанр : Action & AdventureТип содержимого : Short FilmОписание : Получеловек-полувампир Блэйд намерен уничтожить виновника своей судьбы - Дьякона Фроста. Желая избавить людей от тайной и могущественной армии вампиров, заполонивших общество, он отправляется на решающий бой...Дата записи : UTC 1998-12-22 08:00:00Дата кодирования : UTC 2013-08-24 18:51:14Дата пометки : UTC 2013-08-24 18:56:55Обложка : YesTitle/Sort : BladeLongDescription : Получеловек-полувампир Блэйд (Уэсли Снайпс) намерен уничтожить виновника своей судьбы - Дьякона Фроста (Стивен Дорф). Когда-то в кровь Блэйда попало совсем немного вампирского яда, но с течением времени он стал ощущать неизбежность своего превращения. Желая избавить людей от тайной и могущественной армии вампиров, заполонивших общество, он отправляется на решающий бой...AppleStoreCatalogID : 292720888Vendor : Apple:vendor_id:1998-tt0120611ContentRating : mpaa|R|400|iTunMOVI : <?xml version="1.0" encoding="UTF-8"?> / <!DOCTYPE plist PUBLIC "-//Apple//DTD PLIST 1.0//EN" "http://anonym.to/?http://anonym.to/?http://www.apple.com/DTDs/PropertyList-1.0.dtd"> / <plist version="1.0"> / <dict> / <key>cast</key> / <array> / <dict> / <key>name</key> / <string>Уэсли Снайпс</string> / </dict> / <dict> / <key>name</key> / <string>Крис Кристофферсон</string> / </dict> / <dict> / <key>name</key> / <string>Стивен Дорфф</string> / </dict> / <dict> / <key>name</key> / <string>Н’Буш Райт</string> / </dict> / <dict> / <key>name</key> / <string>Донал Лог</string> / </dict> / <dict> / <key>name</key> / <string>Удо Кир</string> / </dict> / <dict> / <key>name</key> / <string>Арли Жовер</string> / </dict> / <dict> / <key>name</key> / <string>Трейси Лордс</string> / </dict> / <dict> / <key>name</key> / <string>Кевин Патрик Уоллс</string> / </dict> / <dict> / <key>name</key> / <string>Тим Гини</string> / </dict> / </array> / <key>directors</key> / <array> / <dict> / <key>name</key> / <string>Стивен Норрингтон</string> / </dict> / </array> / <key>producers</key> / <array> / <dict> / <key>name</key> / <string>Роберт Энгелман</string> / </dict> / <dict> / <key>name</key> / <string>Питер Франкфурт</string> / </dict> / <dict> / <key>name</key> / <string>Уэсли Снайпс</string> / </dict> / </array> / <key>screenwriters</key> / <array> / <dict> / <key>name</key> / <string>Дэвид С. Гойер</string> / </dict> / </array> / </dict> / </plist>
    ВидеоИдентификатор : 1Формат : AVCФормат/Информация : Advanced Video CodecПрофиль формата : Baseline@L3.0Параметр CABAC формата : НетПараметр ReFrames формата : 2 кадраИдентификатор кодека : avc1Идентификатор кодека/Информация : Advanced Video CodingПродолжительность : 2 ч. 0 м.Битрейт : 1700 Кбит/секМаксимальный битрейт : 7463 Кбит/секШирина : 640 пикселейВысота : 360 пикселейСоотношение сторон : 2,35:1Режим частоты кадров : ПеременныйЧастота кадров : 23,976 кадра/секМинимальная частота кадров : 23,810 кадра/секМаксимальная частота кадров : 24,390 кадра/секЦветовое пространство : YUVСубдискретизация насыщенности : 4:2:0Битовая глубина : 8 битТип развёртки : ПрогрессивнаяБит/(Пиксели*Кадры) : 0.308Размер потока : 1,43 Гбайт (81%)Библиотека кодирования : x264 core 120Настройки программы : cabac=0 / ref=2 / deblock=1:0:0 / analyse=0x1:0x111 / me=umh / subme=8 / psy=1 / psy_rd=1.00:0.00 / mixed_ref=1 / me_range=16 / chroma_me=1 / trellis=0 / 8x8dct=0 / cqm=0 / deadzone=21,11 / fast_pskip=1 / chroma_qp_offset=-2 / threads=6 / sliced_threads=0 / nr=0 / decimate=1 / interlaced=0 / bluray_compat=0 / constrained_intra=0 / bframes=0 / weightp=0 / keyint=240 / keyint_min=24 / scenecut=40 / intra_refresh=0 / rc_lookahead=40 / rc=2pass / mbtree=1 / bitrate=1700 / ratetol=1.0 / qcomp=0.60 / qpmin=3 / qpmax=69 / qpstep=4 / cplxblur=20.0 / qblur=0.5 / ip_ratio=1.40 / aq=1:1.00Язык : EnglishДата кодирования : UTC 2013-08-24 18:51:14Дата пометки : UTC 2013-08-24 18:54:18Основные цвета : BT.709Характеристики трансфера : BT.709Коэффициенты матрицы : BT.709
    Аудио #1Идентификатор : 2Формат : AACФормат/Информация : Advanced Audio CodecПрофиль формата : LCИдентификатор кодека : 40Продолжительность : 2 ч. 0 м.Вид битрейта : ПеременныйБитрейт : 128 Кбит/секМаксимальный битрейт : 240 Кбит/секКаналы : 2 каналаРасположение каналов : Front: L RЧастота : 48,0 КГцМетод сжатия : С потерямиРазмер потока : 110 Мбайт (6%)Заголовок : DubЯзык : RussianДата кодирования : UTC 2013-08-24 18:53:29Дата пометки : UTC 2013-08-24 18:54:18
    Аудио #2Идентификатор : 3Формат : AACФормат/Информация : Advanced Audio CodecПрофиль формата : LCИдентификатор кодека : 40Продолжительность : 2 ч. 0 м.Вид битрейта : ПеременныйБитрейт : 128 Кбит/секМаксимальный битрейт : 235 Кбит/секКаналы : 2 каналаРасположение каналов : Front: L RЧастота : 48,0 КГцМетод сжатия : С потерямиРазмер потока : 110 Мбайт (6%)Заголовок : GoblinЯзык : RussianДата кодирования : UTC 2013-08-24 18:53:47Дата пометки : UTC 2013-08-24 18:54:18
    Аудио #3Идентификатор : 4Формат : AACФормат/Информация : Advanced Audio CodecПрофиль формата : LCИдентификатор кодека : 40Продолжительность : 2 ч. 0 м.Вид битрейта : ПеременныйБитрейт : 128 Кбит/секМаксимальный битрейт : 195 Кбит/секКаналы : 2 каналаРасположение каналов : Front: L RЧастота : 48,0 КГцМетод сжатия : С потерямиРазмер потока : 110 Мбайт (6%)Язык : EnglishДата кодирования : UTC 2013-08-24 18:54:03Дата пометки : UTC 2013-08-24 18:54:18
    Текст #1Идентификатор : 5Формат : Timed TextРежим смешивания : sbtlИдентификатор кодека : tx3gПродолжительность : 1 ч. 54 м.Вид битрейта : ПеременныйБитрейт : 58 бит/секРазмер потока : 48,5 Кбайт (0%)Язык : RussianДата кодирования : UTC 2013-08-24 18:54:18Дата пометки : UTC 2013-08-24 18:54:18
    Текст #2Идентификатор : 6Формат : Timed TextРежим смешивания : sbtlИдентификатор кодека : tx3gПродолжительность : 1 ч. 53 м.Вид битрейта : ПеременныйБитрейт : 45 бит/секРазмер потока : 37,9 Кбайт (0%)Язык : EnglishДата кодирования : UTC 2013-08-24 18:54:18Дата пометки : UTC 2013-08-24 18:54:18

    -

    x264 лог

    x264 [info]: frame I:3902 Avg QP:13.50 size: 37515 PSNR Mean Y:51.17 U:53.20 V:53.47 Avg:51.69 Global:50.54x264 [info]: frame P:141358 Avg QP:13.85 size: 5393 PSNR Mean Y:50.30 U:52.65 V:52.58 Avg:50.88 Global:49.86x264 [info]: mb I I16..4: 30.1% 0.0% 69.9%x264 [info]: mb P I16..4: 1.2% 0.0% 2.3% P16..4: 26.7% 11.4% 5.6% 0.0% 0.0% skip:52.8%x264 [info]: coded y,uvDC,uvAC intra: 65.9% 80.8% 68.3% inter: 11.4% 12.4% 5.3%x264 [info]: i16 v,h,dc,p: 42% 20% 6% 32%x264 [info]: i4 v,h,dc,ddl,ddr,vr,hd,vl,hu: 14% 10% 9% 11% 14% 13% 11% 10% 8%x264 [info]: i8c dc,h,v,p: 48% 18% 20% 15%x264 [info]: ref P L0: 63.4% 19.7% 17.0%x264 [info]: SSIM Mean Y:0.9949948 (23.006db)x264 [info]: PSNR Mean Y:50.320 U:52.666 V:52.600 Avg:50.903 Global:49.874 kb/s:1700.01

    -

    Скриншоты


    -

    Блэйд 2 / Blade 2 (2002&#41;

    -Год выпуска: 2002
    Страна: США
    Жанр: ужасы, боевик, фэнтези
    Продолжительность: 01:56:51
    Рейтинг MPAA: R
    Рейтинг КиноПоиск: 6.9
    Рейтинг IMDb: 6.7-Перевод: Профессиональный (дублированный)
    Оригинальная аудиодорожка: есть
    Cубтитры: русские и английские
    Режиссёр: Гильермо дель Торо / Guillermo del Toro
    Сценарий: Марв Вольфман, Джин Колан, Дэвид С. Гойер
    Продюссер: Питер Франкфурт, Патрик Дж. Палмер, Уэсли Снайпс
    В ролях: Уэсли Снайпс, Крис Кристофферсон, Рон Перлман, Леонор Варела, Норман Ридус, Томас Кречманн, Люк Госс, Мэтт Шульце, Дэнни Джон-Джулс, Донни Ен-Описание:
    Мир вампиров в ужасе от появления новой расы супер-кровососов! Именно благодаря этому легендарный Блэйд и его учитель Уистлер вынуждены объединиться со своими кровными врагами Кровавой Стаей, — элитным отрядом вампиров-воинов.-Качество исходника: BDRemux
    Качество: BDRip
    Разрешение: 480p
    Формат: M4V
    Видео: AVC at 1600 Кбит/сек, 640 x 480 (1.775) at 23.976 fps
    Аудио: AAC at 128 Кбит/сек, 2 канала, 48,0 КГц / Russian, Дубляж
    Аудио №2: AAC at 128 Кбит/сек, 2 канала, 48,0 КГц, English-

    iTunes Meta Tags

    Media Type: MovieSort Name: Blade IIXID: Apple:vendor_id:2002-tt0187738Content ID: 309685723ScreenWriters: Марв Вольфман, Джин Колан, Дэвид С. ГойерProducers: Питер Франкфурт, Патрик Дж. Палмер, Уэсли СнайпсDirector: Гильермо дель ТороCast: Уэсли Снайпс, Крис Кристофферсон, Рон Перлман, Леонор Варела, Норман Ридус, Томас Кречманн, Люк Госс, Мэтт Шульце, Дэнни Джон-Джулс, Донни ЕнRating: RLong Description: Мир вампиров в ужасе от появления новой расы супер-кровососов! Именно благодаря этому, легендарный Блэйд и его учитель Уистлер вынуждены объединиться со своими кровными врагами Кровавой Стаей, — элитным отрядом вампиров-воинов.Description: Мир вампиров в ужасе от появления новой расы супер-кровососов! Именно благодаря этому, легендарный Блэйд и его учитель Уистлер вынуждены объединиться со своими кровными врагами Кровавой Стаей, — элитным отрядом вампиров-воинов.Release Date: 2002-09-03T07:00:00ZGenre: Action & AdventureArtist: Guillermo del ToroName: Блэйд 2

    -

    MediaInfo

    ОбщееПолное имя : E:\iPhone Releases\Blade\Blade II.m4vФормат : MPEG-4Идентификатор кодека : M4VРазмер файла : 1,63 ГбайтПродолжительность : 1 ч. 56 м.Режим общего битрейта : ПеременныйОбщий поток : 1991 Кбит/секНазвание фильма : Блэйд 2Исполнитель : Guillermo del ToroЖанр : Action & AdventureТип содержимого : Short FilmОписание : Мир вампиров в ужасе от появления новой расы супер-кровососов! Именно благодаря этому, легендарный Блэйд и его учитель Уистлер вынуждены объединиться со своими кровными врагами Кровавой Стаей, — элитным отрядом вампиров-воинов.Дата записи : UTC 2002-09-03 07:00:00Дата кодирования : UTC 2013-08-31 08:28:25Дата пометки : UTC 2013-08-31 08:33:31Обложка : YesTitle/Sort : Blade IILongDescription : Мир вампиров в ужасе от появления новой расы супер-кровососов! Именно благодаря этому, легендарный Блэйд и его учитель Уистлер вынуждены объединиться со своими кровными врагами Кровавой Стаей, — элитным отрядом вампиров-воинов.AppleStoreCatalogID : 309685723Vendor : Apple:vendor_id:2002-tt0187738ContentRating : mpaa|R|400|iTunMOVI : <?xml version="1.0" encoding="UTF-8"?> / <!DOCTYPE plist PUBLIC "-//Apple//DTD PLIST 1.0//EN" "http://anonym.to/?http://anonym.to/?http://www.apple.com/DTDs/PropertyList-1.0.dtd"> / <plist version="1.0"> / <dict> / <key>cast</key> / <array> / <dict> / <key>name</key> / <string>Уэсли Снайпс</string> / </dict> / <dict> / <key>name</key> / <string>Крис Кристофферсон</string> / </dict> / <dict> / <key>name</key> / <string>Рон Перлман</string> / </dict> / <dict> / <key>name</key> / <string>Леонор Варела</string> / </dict> / <dict> / <key>name</key> / <string>Норман Ридус</string> / </dict> / <dict> / <key>name</key> / <string>Томас Кречманн</string> / </dict> / <dict> / <key>name</key> / <string>Люк Госс</string> / </dict> / <dict> / <key>name</key> / <string>Мэтт Шульце</string> / </dict> / <dict> / <key>name</key> / <string>Дэнни Джон-Джулс</string> / </dict> / <dict> / <key>name</key> / <string>Донни Ен</string> / </dict> / </array> / <key>directors</key> / <array> / <dict> / <key>name</key> / <string>Гильермо дель Торо</string> / </dict> / </array> / <key>producers</key> / <array> / <dict> / <key>name</key> / <string>Питер Франкфурт</string> / </dict> / <dict> / <key>name</key> / <string>Патрик Дж. Палмер</string> / </dict> / <dict> / <key>name</key> / <string>Уэсли Снайпс</string> / </dict> / </array> / <key>screenwriters</key> / <array> / <dict> / <key>name</key> / <string>Марв Вольфман</string> / </dict> / <dict> / <key>name</key> / <string>Джин Колан</string> / </dict> / <dict> / <key>name</key> / <string>Дэвид С. Гойер</string> / </dict> / </array> / </dict> / </plist>
    ВидеоИдентификатор : 1Формат : AVCФормат/Информация : Advanced Video CodecПрофиль формата : Baseline@L3.0Параметр CABAC формата : НетПараметр ReFrames формата : 2 кадраИдентификатор кодека : avc1Идентификатор кодека/Информация : Advanced Video CodingПродолжительность : 1 ч. 56 м.Битрейт : 1600 Кбит/секМаксимальный битрейт : 10,5 Мбит/секШирина : 640 пикселейВысота : 480 пикселейСоотношение сторон : 16:9Режим частоты кадров : ПеременныйЧастота кадров : 23,976 кадра/секМинимальная частота кадров : 23,810 кадра/секМаксимальная частота кадров : 24,390 кадра/секЦветовое пространство : YUVСубдискретизация насыщенности : 4:2:0Битовая глубина : 8 битТип развёртки : ПрогрессивнаяБит/(Пиксели*Кадры) : 0.217Размер потока : 1,31 Гбайт (80%)Библиотека кодирования : x264 core 120Настройки программы : cabac=0 / ref=2 / deblock=1:0:0 / analyse=0x1:0x111 / me=umh / subme=8 / psy=1 / psy_rd=1.00:0.00 / mixed_ref=1 / me_range=16 / chroma_me=1 / trellis=0 / 8x8dct=0 / cqm=0 / deadzone=21,11 / fast_pskip=1 / chroma_qp_offset=-2 / threads=6 / sliced_threads=0 / nr=0 / decimate=1 / interlaced=0 / bluray_compat=0 / constrained_intra=0 / bframes=0 / weightp=0 / keyint=240 / keyint_min=24 / scenecut=40 / intra_refresh=0 / rc_lookahead=40 / rc=2pass / mbtree=1 / bitrate=1600 / ratetol=1.0 / qcomp=0.60 / qpmin=3 / qpmax=69 / qpstep=4 / cplxblur=20.0 / qblur=0.5 / ip_ratio=1.40 / aq=1:1.00Язык : EnglishДата кодирования : UTC 2013-08-31 08:28:25Дата пометки : UTC 2013-08-31 08:31:34Основные цвета : BT.709Характеристики трансфера : BT.709Коэффициенты матрицы : BT.709
    Аудио #1Идентификатор : 2Формат : AACФормат/Информация : Advanced Audio CodecПрофиль формата : LCИдентификатор кодека : 40Продолжительность : 1 ч. 56 м.Вид битрейта : ПеременныйБитрейт : 128 Кбит/секМаксимальный битрейт : 208 Кбит/секКаналы : 2 каналаРасположение каналов : Front: L RЧастота : 48,0 КГцМетод сжатия : С потерямиРазмер потока : 107 Мбайт (6%)Заголовок : DubЯзык : RussianДата кодирования : UTC 2013-08-31 08:30:41Дата пометки : UTC 2013-08-31 08:31:34
    Аудио #2Идентификатор : 3Формат : AACФормат/Информация : Advanced Audio CodecПрофиль формата : LCИдентификатор кодека : 40Продолжительность : 1 ч. 56 м.Вид битрейта : ПеременныйБитрейт : 128 Кбит/секМаксимальный битрейт : 208 Кбит/секКаналы : 2 каналаРасположение каналов : Front: L RЧастота : 48,0 КГцМетод сжатия : С потерямиРазмер потока : 107 Мбайт (6%)Заголовок : GoblinЯзык : RussianДата кодирования : UTC 2013-08-31 08:30:57Дата пометки : UTC 2013-08-31 08:31:34
    Аудио #3Идентификатор : 4Формат : AACФормат/Информация : Advanced Audio CodecПрофиль формата : LCИдентификатор кодека : 40Продолжительность : 1 ч. 56 м.Вид битрейта : ПеременныйБитрейт : 128 Кбит/секМаксимальный битрейт : 221 Кбит/секКаналы : 2 каналаРасположение каналов : Front: L RЧастота : 48,0 КГцМетод сжатия : С потерямиРазмер потока : 107 Мбайт (6%)Язык : EnglishДата кодирования : UTC 2013-08-31 08:31:13Дата пометки : UTC 2013-08-31 08:31:34
    Текст #1Идентификатор : 5Формат : Timed TextРежим смешивания : sbtlИдентификатор кодека : tx3gПродолжительность : 1 ч. 55 м.Вид битрейта : ПеременныйБитрейт : 60 бит/секРазмер потока : 50,9 Кбайт (0%)Язык : RussianДата кодирования : UTC 2013-08-31 08:31:34Дата пометки : UTC 2013-08-31 08:31:34
    Текст #2Идентификатор : 6Формат : Timed TextРежим смешивания : sbtlИдентификатор кодека : tx3gПродолжительность : 1 ч. 49 м.Вид битрейта : ПеременныйБитрейт : 47 бит/секРазмер потока : 37,8 Кбайт (0%)Язык : RussianДата кодирования : UTC 2013-08-31 08:31:34Дата пометки : UTC 2013-08-31 08:31:34
    Текст #3Идентификатор : 7Формат : Timed TextРежим смешивания : sbtlИдентификатор кодека : tx3gПродолжительность : 1 ч. 49 м.Вид битрейта : ПеременныйБитрейт : 37 бит/секРазмер потока : 29,7 Кбайт (0%)Язык : EnglishДата кодирования : UTC 2013-08-31 08:31:34Дата пометки : UTC 2013-08-31 08:31:34

    -

    x264 лог

    x264 [info]: frame I:3902 Avg QP:13.50 size: 37515 PSNR Mean Y:51.17 U:53.20 V:53.47 Avg:51.69 Global:50.54x264 [info]: frame P:141358 Avg QP:13.85 size: 5393 PSNR Mean Y:50.30 U:52.65 V:52.58 Avg:50.88 Global:49.86x264 [info]: mb I I16..4: 30.1% 0.0% 69.9%x264 [info]: mb P I16..4: 1.2% 0.0% 2.3% P16..4: 26.7% 11.4% 5.6% 0.0% 0.0% skip:52.8%x264 [info]: coded y,uvDC,uvAC intra: 65.9% 80.8% 68.3% inter: 11.4% 12.4% 5.3%x264 [info]: i16 v,h,dc,p: 42% 20% 6% 32%x264 [info]: i4 v,h,dc,ddl,ddr,vr,hd,vl,hu: 14% 10% 9% 11% 14% 13% 11% 10% 8%x264 [info]: i8c dc,h,v,p: 48% 18% 20% 15%x264 [info]: ref P L0: 63.4% 19.7% 17.0%x264 [info]: SSIM Mean Y:0.9949948 (23.006db)x264 [info]: PSNR Mean Y:50.320 U:52.666 V:52.600 Avg:50.903 Global:49.874 kb/s:1599.99

    -

    Скриншоты


    -

    Блэйд 3&#58; Троица / Blade Trinity (2004&#41;

    -Год выпуска: 2004
    Страна: США
    Жанр: ужасы, боевик, фэнтези
    Продолжительность: 01:52:55
    Рейтинг MPAA: R
    Рейтинг КиноПоиск: 6.1
    Рейтинг IMDb: 5.9-Перевод: Профессиональный (дублированный)
    Оригинальная аудиодорожка: есть
    Cубтитры: русские и английские
    Режиссёр: Дэвид С. Гойер / David S. Goyer
    Сценарий: Дэвид С. Гойер, Марв Вольфман, Джин Колан
    Продюссер: Питер Франкфурт, Дэвид С. Гойер, Линн Харрис
    В ролях: Уэсли Снайпс, Крис Кристофферсон, Доминик Пёрселл, Джессика Бил, Райан Рейнольдс, Паркер Поузи, Марк Берри, Джон Майкл Хиггинс, Каллум Кит Ренни, Пол Левески-Описание:
    Фатальные события могут привести к захвату власти в мире вампирами. Блэйд — единственный, кто может предотвратить страшные перемены и воспрепятствовать превращению мира в «Планету вампиров».
    Стремясь помешать Блэйду в реализации его плана, верхушка вампиров во главе с Даникой Талос натравливают на него людей. Полиция начинает охоту на того, кого теперь все считают жутким монстром…
    -Качество исходника: BDRemux
    Качество: BDRip
    Разрешение: 480p
    Формат: M4V
    Видео: AVC at 1800 Кбит/сек, 640 x 362 (2.353) at 23.976 fps
    Аудио: AAC at 128 Кбит/сек, 2 канала, 48,0 КГц / Russian, Дубляж
    Аудио №2: AAC at 128 Кбит/сек, 2 канала, 48,0 КГц, English-

    iTunes Meta Tags

    Media Type: MovieSort Name: Blade: TrinityXID: Apple:vendor_id:2004-tt0359013Content ID: 375576515ScreenWriters: Дэвид С. Гойер, Марв Вольфман, Джин КоланProducers: Питер Франкфурт, Дэвид С. Гойер, Линн ХаррисDirector: Дэвид С. ГойерCast: Уэсли Снайпс, Крис Кристофферсон, Доминик Пёрселл, Джессика Бил, Райан Рейнольдс, Паркер Поузи, Марк Берри, Джон Майкл Хиггинс, Каллум Кит Ренни, Пол ЛевескиRating: RLong Description: Фатальные события могут привести к захвату власти в мире вампирами, объявившими войну Блэйду (Уэсли Снайпс). Их вернувшийся мессия Дракула разворачивает широкую успешную кампанию по дискредитации Блэйда, который становится для людей врагом номер один. Беглец, отверженный людьми, открывшими на него охоту, Блэйд находит неожиданную помощь в лице бывшего вампира Короля Ганнибала (Райан Рейнолдс), связанного с группировкой «Ночных охотников».Description: Фатальные события могут привести к захвату власти в мире вампирами, объявившими войну Блэйду. Их вернувшийся мессия Дракула разворачивает широкую успешную кампанию по дискредитации Блэйда, который становится для людей врагом номер один.Release Date: 2004-12-08T08:00:00ZGenre: Action & AdventureArtist: David S. GoyerName: Блэйд 3: Троица

    -

    MediaInfo

    ОбщееПолное имя : E:\iPhone Releases\Blade\Blade Trinity.m4vФормат : MPEG-4Профиль формата : Base MediaИдентификатор кодека : isomРазмер файла : 1,63 ГбайтПродолжительность : 1 ч. 52 м.Режим общего битрейта : ПеременныйОбщий поток : 2062 Кбит/секНазвание фильма : Блэйд 3: ТроицаИсполнитель : David S. GoyerЖанр : Action & AdventureТип содержимого : Short FilmОписание : Фатальные события могут привести к захвату власти в мире вампирами, объявившими войну Блэйду. Их вернувшийся мессия Дракула разворачивает широкую успешную кампанию по дискредитации Блэйда, который становится для людей врагом номер один.Дата записи : UTC 2004-12-08 08:00:00Дата кодирования : UTC 2014-09-22 19:00:44Дата пометки : UTC 2014-09-22 19:02:57Программа кодирования : MkvToMp4 [www.mkvtomp4.ru] version: 0.224 (x64)Обложка : YesTitle/Sort : Blade: TrinityLongDescription : Фатальные события могут привести к захвату власти в мире вампирами, объявившими войну Блэйду (Уэсли Снайпс). Их вернувшийся мессия Дракула разворачивает широкую успешную кампанию по дискредитации Блэйда, который становится для людей врагом номер один. Беглец, отверженный людьми, открывшими на него охоту, Блэйд находит неожиданную помощь в лице бывшего вампира Короля Ганнибала (Райан Рейнолдс), связанного с группировкой «Ночных охотников».AppleStoreCatalogID : 375576515Vendor : Apple:vendor_id:2004-tt0359013ContentRating : mpaa|R|400|iTunMOVI : <?xml version="1.0" encoding="UTF-8"?> / <!DOCTYPE plist PUBLIC "-//Apple//DTD PLIST 1.0//EN" "http://anonym.to/?http://anonym.to/?http://www.apple.com/DTDs/PropertyList-1.0.dtd"> / <plist version="1.0"> / <dict> / <key>cast</key> / <array> / <dict> / <key>name</key> / <string>Уэсли Снайпс</string> / </dict> / <dict> / <key>name</key> / <string>Крис Кристофферсон</string> / </dict> / <dict> / <key>name</key> / <string>Доминик Пёрселл</string> / </dict> / <dict> / <key>name</key> / <string>Джессика Бил</string> / </dict> / <dict> / <key>name</key> / <string>Райан Рейнольдс</string> / </dict> / <dict> / <key>name</key> / <string>Паркер Поузи</string> / </dict> / <dict> / <key>name</key> / <string>Марк Берри</string> / </dict> / <dict> / <key>name</key> / <string>Джон Майкл Хиггинс</string> / </dict> / <dict> / <key>name</key> / <string>Каллум Кит Ренни</string> / </dict> / <dict> / <key>name</key> / <string>Пол Левески</string> / </dict> / </array> / <key>directors</key> / <array> / <dict> / <key>name</key> / <string>Дэвид С. Гойер</string> / </dict> / </array> / <key>producers</key> / <array> / <dict> / <key>name</key> / <string>Питер Франкфурт</string> / </dict> / <dict> / <key>name</key> / <string>Дэвид С. Гойер</string> / </dict> / <dict> / <key>name</key> / <string>Линн Харрис</string> / </dict> / </array> / <key>screenwriters</key> / <array> / <dict> / <key>name</key> / <string>Дэвид С. Гойер</string> / </dict> / <dict> / <key>name</key> / <string>Марв Вольфман</string> / </dict> / <dict> / <key>name</key> / <string>Джин Колан</string> / </dict> / </array> / </dict> / </plist>
    ВидеоИдентификатор : 1Формат : AVCФормат/Информация : Advanced Video CodecПрофиль формата : Baseline@L3.0Параметр CABAC формата : НетПараметр ReFrames формата : 3 кадраИдентификатор кодека : avc1Идентификатор кодека/Информация : Advanced Video CodingПродолжительность : 1 ч. 52 м.Битрейт : 1800 Кбит/секМаксимальный битрейт : 11,8 Мбит/секШирина : 640 пикселейВысота : 362 пикселяСоотношение сторон : 2,35:1Режим частоты кадров : ПеременныйЧастота кадров : 23,976 кадра/секМинимальная частота кадров : 23,810 кадра/секМаксимальная частота кадров : 24,390 кадра/секЦветовое пространство : YUVСубдискретизация насыщенности : 4:2:0Битовая глубина : 8 битТип развёртки : ПрогрессивнаяБит/(Пиксели*Кадры) : 0.324Размер потока : 1,42 Гбайт (87%)Библиотека кодирования : x264 core 130 r2273 b3065e6Настройки программы : cabac=0 / ref=3 / deblock=1:0:0 / analyse=0x1:0x111 / me=umh / subme=8 / psy=1 / psy_rd=1.00:0.00 / mixed_ref=1 / me_range=16 / chroma_me=1 / trellis=0 / 8x8dct=0 / cqm=0 / deadzone=21,11 / fast_pskip=1 / chroma_qp_offset=-2 / threads=6 / lookahead_threads=1 / sliced_threads=0 / nr=0 / decimate=1 / interlaced=0 / bluray_compat=0 / constrained_intra=0 / bframes=0 / weightp=0 / keyint=300 / keyint_min=30 / scenecut=40 / intra_refresh=0 / rc_lookahead=40 / rc=2pass / mbtree=1 / bitrate=1800 / ratetol=1.0 / qcomp=0.60 / qpmin=0 / qpmax=69 / qpstep=4 / cplxblur=20.0 / qblur=0.5 / ip_ratio=1.40 / aq=1:1.00Язык : EnglishДата кодирования : UTC 2014-09-22 19:00:44Дата пометки : UTC 2014-09-22 19:01:40Основные цвета : BT.709Характеристики трансфера : BT.709Коэффициенты матрицы : BT.709
    Аудио #1Идентификатор : 2Формат : AACФормат/Информация : Advanced Audio CodecПрофиль формата : LCИдентификатор кодека : 40Продолжительность : 1 ч. 52 м.Вид битрейта : ПеременныйБитрейт : 128 Кбит/секМаксимальный битрейт : 167 Кбит/секКаналы : 2 каналаРасположение каналов : Front: L RЧастота : 48,0 КГцМетод сжатия : С потерямиРазмер потока : 103 Мбайт (6%)Язык : RussianДата кодирования : UTC 2014-09-22 19:01:16Дата пометки : UTC 2014-09-22 19:01:40
    Аудио #2Идентификатор : 3Формат : AACФормат/Информация : Advanced Audio CodecПрофиль формата : LCИдентификатор кодека : 40Продолжительность : 1 ч. 52 м.Вид битрейта : ПеременныйБитрейт : 128 Кбит/секМаксимальный битрейт : 202 Кбит/секКаналы : 2 каналаРасположение каналов : Front: L RЧастота : 48,0 КГцМетод сжатия : С потерямиРазмер потока : 103 Мбайт (6%)Язык : EnglishДата кодирования : UTC 2014-09-22 19:01:29Дата пометки : UTC 2014-09-22 19:01:40
    Текст #1Идентификатор : 4Формат : Timed TextРежим смешивания : sbtlИдентификатор кодека : tx3gПродолжительность : 1 ч. 52 м.Вид битрейта : ПеременныйБитрейт : 61 бит/секРазмер потока : 50,4 Кбайт (0%)Язык : RussianДата кодирования : UTC 2014-09-22 19:01:39Дата пометки : UTC 2014-09-22 19:01:40
    Текст #2Идентификатор : 5Формат : Timed TextРежим смешивания : sbtlИдентификатор кодека : tx3gПродолжительность : 1 ч. 50 м.Вид битрейта : ПеременныйБитрейт : 42 бит/секРазмер потока : 34,1 Кбайт (0%)Язык : EnglishДата кодирования : UTC 2014-09-22 19:01:40Дата пометки : UTC 2014-09-22 19:01:40
    МенюИдентификатор : 6Идентификатор кодека : textПродолжительность : 1 ч. 52 м.Дата кодирования : UTC 2014-09-22 19:02:51Дата пометки : UTC 2014-09-22 19:02:51Вид битрейта : VBR

    -

    x264 лог

    x264 [info]: frame I:3902 Avg QP:13.50 size: 37515 PSNR Mean Y:51.17 U:53.20 V:53.47 Avg:51.69 Global:50.54x264 [info]: frame P:141358 Avg QP:13.85 size: 5393 PSNR Mean Y:50.30 U:52.65 V:52.58 Avg:50.88 Global:49.86x264 [info]: mb I I16..4: 30.1% 0.0% 69.9%x264 [info]: mb P I16..4: 1.2% 0.0% 2.3% P16..4: 26.7% 11.4% 5.6% 0.0% 0.0% skip:52.8%x264 [info]: coded y,uvDC,uvAC intra: 65.9% 80.8% 68.3% inter: 11.4% 12.4% 5.3%x264 [info]: i16 v,h,dc,p: 42% 20% 6% 32%x264 [info]: i4 v,h,dc,ddl,ddr,vr,hd,vl,hu: 14% 10% 9% 11% 14% 13% 11% 10% 8%x264 [info]: i8c dc,h,v,p: 48% 18% 20% 15%x264 [info]: ref P L0: 63.4% 19.7% 17.0%x264 [info]: SSIM Mean Y:0.9949948 (23.006db)x264 [info]: PSNR Mean Y:50.320 U:52.666 V:52.600 Avg:50.903 Global:49.874 kb/s:1599.99

    -

    Скриншоты

    Скачать .torrent

    Скачать торрент-файл бесплатно и на максимальной скорости!

    Как скачивать? · Что такое торрент? · Рейтинг и ограничения

    !ВНИМАНИЕ!
    Сайт не распространяет и не хранит электронные версии произведений, а занимается лишь лишь предоставлением доступа к создаваемому пользователями каталогу ссылок на торрент-файлы, которые содержат только списки хеш-сумм, убедительная просьба с жалобами обращаться напрямую к пользователю. Файлы для обмена на трекере предоставлены пользователями сайта, и администрация не несёт ответственности за их содержание. Просьба не заливать файлы, защищенные авторскими правами, а также файлы нелегального содержания!


    _________________
    [Профиль] [ЛС]
    Показать сообщения:    
    Ответить на тему

    Текущее время: Сегодня, в 22:07

    Часовой пояс: GMT + 2



    Вы не можете начинать темы
    Вы не можете отвечать на сообщения
    Вы не можете редактировать свои сообщения
    Вы не можете удалять свои сообщения
    Вы не можете голосовать в опросах
    Вы не можете прикреплять файлы к сообщениям
    Вы не можете скачивать файлы