BitTorrentTracker PerecTracker.org
BitTorrentTracker PerecTracker.org
    
Регистрация  ·  Вход
 
 · 
Забыли пароль?

  • [iPad] В изгнании / Outcast (Ник Пауэлл / Nick Powell ) [2014, Китай, США, Франция, Боевик, HDRip, SD (576p)] DVO + Original + sub (eng)

    Ответить на тему
     
    Автор Сообщение

    rechyn

    Создавать темы 02-Сен-2015 12:55

           

    [Цитировать]

    В изгнании / Outcast
    -
    5.244 / 10 6.40 / 10
    -Год выпуска: 2014
    Страна: Китай, США, Франция
    Жанр: Боевик
    Продолжительность: 01:38:34
    Перевод: Любительский (двухголосый закадровый) (Пиратская студия)
    Оригинальная аудиодорожка: Есть
    Cубтитры: Английские
    Режиссёр: Ник Пауэлл
    Сценарий: Джеймс Дормер
    Продюсер: Джереми Болт, Тоув Кристенсен, Леонард Гловински
    Оператор: Джоэль Рэнсом
    Композитор: Гийом Пассел
    Художник: Найджел Чёрчер, Хаоюй Ян, Цзин Го
    Монтаж: Оливье Гоерлей, Артур Тарновски, Николас Трембасьевич
    В ролях: Николас Кейдж, Хейден Кристенсен, Лю Ифэй, Рон Смуренбург, Энди Он, Джавед Эль Берни, Фернандо Чиен, Престон Бэйкер, Байрон Лосон, Томер Оз
    Мировая премьера: 26 сентября 2014
    Описание: Сюжет фильма разворачивается в Китае, в Средние века. Наследник императорского престола становится целью убийства у своего презираемого старшего брата и вынужден бежать. Единственное, что остается молодому принцу, – это защита его сестры при помощи воина-крестоносца (Хейден Кристенсен), которому, в свою очередь, придется смириться с собственными демонами и, сплотившись с некогда легендарным воином, ныне ставшим бандитом (Николас Кейдж), вернуть принца на его законное место на троне...-Качество исходника: BDRip 1080p
    Качество: HDRip
    Тип: SD (576p)
    Контейнер: M4V
    Видео: H.264, 1024x432, 2.40:1, 2 200 Kbps, 23.976 fps
    Аудио 1: Русский/Любительский (двухголосый закадровый) (Пиратская студия), AAC / 2.0 / 157 Kbps / 48.0 KHz
    Аудио 2: Английский/Оригинальная дорожка , AAC / 2.0 / 157 Kbps / 48.0 KHz
    Субтитры: Английские полные
    -

    iTunes Meta Tags

    Sort Name: Outcast
    XID: Apple:vendor_id:2014-489562
    contentID: 938502584
    Copyright: © 2014 Yunnan Film Group, OC Films (Canada) Inc., 22h22
    Screenwriters: Джеймс Дормер
    Producers: Джереми Болт, Тоув Кристенсен, Леонард Гловински
    Director: Ник Пауэлл
    Cast: Николас Кейдж, Хейден Кристенсен, Лю Ифэй, Рон Смуренбург, Энди Он, Джавед Эль Берни, Фернандо Чиен, Престон Бэйкер, Байрон Лосон, Томер Оз
    Studio: Notorious Films, 22h22, Media Max Productions
    Rating: 24
    Long Description: Действие будет происходить в Китае в десятом веке, и в центре истории - воин, который, чтобы вернуть доверие, вызывается спасти принцессу.
    Description: Действие будет происходить в Китае в десятом веке, и в центре истории - воин, который, чтобы вернуть доверие, вызывается спасти принцессу.
    Release Date: 2014-09-26T08:00:00Z
    Genre: Action & Adventure
    Artist: Nicholas Powell
    Name: Outcast (2014)

    MediaInfo

    General
    Complete name                            : /Users/imac/HandBrake/Outcast.(SD).(pk).m4v
    Format                                   : MPEG-4
    Codec ID                                 : M4V
    File size                                : 1.74 GiB
    Duration                                 : 1h 38mn
    Overall bit rate mode                    : Variable
    Overall bit rate                         : 2 521 Kbps
    Movie name                               : Outcast (2014)
    Performer                                : Nicholas Powell
    Genre                                    : Action & Adventure
    Recorded date                            : UTC 2014-09-26 08:00:00
    Encoded date                             : UTC 2014-12-28 09:42:10
    Tagged date                              : UTC 2014-12-28 09:43:28
    Copyright                                : © 2014 Yunnan Film Group, OC Films (Canada) Inc., 22h22
    Cover                                    : Yes
    sonm                                     : Outcast
    desc                                     : Действие будет происходить в Китае в десятом веке, и в центре истории - воин, который, чтобы вернуть доверие, вызывается спасти принцессу.
    ldes                                     : Действие будет происходить в Китае в десятом веке, и в центре истории - воин, который, чтобы вернуть доверие, вызывается спасти принцессу.
    stik                                     : 9
    rtng                                     : 0
    cnID                                     : 938502584
    xid                                      : Apple:vendor_id:2014-489562
    iTunEXTC                                 : au-movie|MA15+|375|
    iTunMOVI                                 : <?xml version=\"1.0\" encoding=\"UTF-8\"?> / <!DOCTYPE plist PUBLIC \"-//Apple//DTD PLIST 1.0//EN\" \"http://anonym.to/?http://www.apple.com/DTDs/PropertyList-1.0.dtd\"> / <plist version=\"1.0\"> / <dict> /  <key>cast</key> /  <array> /   <dict> /    <key>name</key> /    <string>Николас Кейдж</string> /   </dict> /   <dict> /    <key>name</key> /    <string>Хейден Кристенсен</string> /   </dict> /   <dict> /    <key>name</key> /    <string>Лю Ифэй</string> /   </dict> /   <dict> /    <key>name</key> /    <string>Рон Смуренбург</string> /   </dict> /   <dict> /    <key>name</key> /    <string>Энди Он</string> /   </dict> /   <dict> /    <key>name</key> /    <string>Джавед Эль Берни</string> /   </dict> /   <dict> /    <key>name</key> /    <string>Фернандо Чиен</string> /   </dict> /   <dict> /    <key>name</key> /    <string>Престон Бэйкер</string> /   </dict> /   <dict> /    <key>name</key> /    <string>Байрон Лосон</string> /   </dict> /   <dict> /    <key>name</key> /    <string>Томер Оз</string> /   </dict> /  </array> /  <key>directors</key> /  <array> /   <dict> /    <key>name</key> /    <string>Ник Пауэлл</string> /   </dict> /  </array> /  <key>producers</key> /  <array> /   <dict> /    <key>name</key> /    <string>Джереми Болт</string> /   </dict> /   <dict> /    <key>name</key> /    <string>Тоув Кристенсен</string> /   </dict> /   <dict> /    <key>name</key> /    <string>Леонард Гловински</string> /   </dict> /  </array> /  <key>screenwriters</key> /  <array> /   <dict> /    <key>name</key> /    <string>Джеймс Дормер</string> /   </dict> /  </array> /  <key>studio</key> /  <string>Notorious Films, 22h22, Media Max Productions</string> / </dict> / </plist>
    Video #1
    ID                                       : 1
    Format                                   : AVC
    Format/Info                              : Advanced Video Codec
    Format profile                           : High@L3.1
    Format settings, CABAC                   : Yes
    Format settings, ReFrames                : 9 frames
    Codec ID                                 : avc1
    Codec ID/Info                            : Advanced Video Coding
    Duration                                 : 1h 38mn
    Bit rate mode                            : Variable
    Bit rate                                 : 2 200 Kbps
    Width                                    : 1 024 pixels
    Height                                   : 432 pixels
    Display aspect ratio                     : 2.40:1
    Frame rate mode                          : Variable
    Frame rate                               : 23.976 fps
    Minimum frame rate                       : 23.810 fps
    Maximum frame rate                       : 24.272 fps
    Color space                              : YUV
    Chroma subsampling                       : 4:2:0
    Bit depth                                : 8 bits
    Scan type                                : Progressive
    Bits/(Pixel*Frame)                       : 0.207
    Stream size                              : 1.51 GiB (87%)
    Writing library                          : x264 core 142 r2479 dd79a61
    Encoding settings                        : cabac=1 / ref=9 / deblock=1:0:0 / analyse=0x3:0x113 / me=umh / subme=9 / psy=1 / psy_rd=1.00:0.00 / mixed_ref=1 / me_range=32 / chroma_me=1 / trellis=1 / 8x8dct=1 / cqm=0 / deadzone=21,11 / fast_pskip=1 / chroma_qp_offset=-2 / threads=12 / lookahead_threads=1 / sliced_threads=0 / nr=0 / decimate=1 / interlaced=0 / bluray_compat=0 / constrained_intra=0 / bframes=6 / b_pyramid=2 / b_adapt=2 / b_bias=0 / direct=1 / weightb=1 / open_gop=0 / weightp=2 / keyint=240 / keyint_min=24 / scenecut=40 / intra_refresh=0 / rc_lookahead=40 / rc=2pass / mbtree=1 / bitrate=2200 / ratetol=1.0 / qcomp=0.60 / qpmin=0 / qpmax=69 / qpstep=4 / cplxblur=20.0 / qblur=0.5 / ip_ratio=1.40 / aq=1:1.00
    Language                                 : English
    Encoded date                             : UTC 2014-12-28 09:42:10
    Tagged date                              : UTC 2014-12-28 09:42:20
    Color primaries                          : BT.709-5, BT.1361, IEC 61966-2-4, SMPTE RP177
    Transfer characteristics                 : BT.709-5, BT.1361
    Matrix coefficients                      : BT.709-5, BT.1361, IEC 61966-2-4 709, SMPTE RP177
    Video #2
    ID                                       : 6
    Format                                   : JPEG
    Codec ID                                 : jpeg
    Duration                                 : 1h 38mn
    Bit rate mode                            : Variable
    Bit rate                                 : 529 bps
    Width                                    : 640 pixels
    Height                                   : 270 pixels
    Display aspect ratio                     : 2.40:1
    Frame rate mode                          : Variable
    Frame rate                               : 0.002 fps
    Minimum frame rate                       : 0.001 fps
    Maximum frame rate                       : 0.002 fps
    Color space                              : YUV
    Chroma subsampling                       : 4:2:0
    Bit depth                                : 8 bits
    Compression mode                         : Lossy
    Bits/(Pixel*Frame)                       : 1.531
    Stream size                              : 291 KiB (0%)
    Language                                 : English
    Encoded date                             : UTC 2014-12-28 09:42:24
    Tagged date                              : UTC 2014-12-28 09:42:24
    Audio #1
    ID                                       : 2
    Format                                   : AAC
    Format/Info                              : Advanced Audio Codec
    Format profile                           : LC
    Codec ID                                 : 40
    Duration                                 : 1h 38mn
    Bit rate mode                            : Variable
    Bit rate                                 : 157 Kbps
    Maximum bit rate                         : 235 Kbps
    Channel(s)                               : 2 channels
    Channel positions                        : Front: L R
    Sampling rate                            : 48.0 KHz
    Compression mode                         : Lossy
    Stream size                              : 110 MiB (6%)
    Language                                 : Russian
    Encoded date                             : UTC 2014-12-28 09:42:10
    Tagged date                              : UTC 2014-12-28 09:42:22
    Audio #2
    ID                                       : 3
    Format                                   : AAC
    Format/Info                              : Advanced Audio Codec
    Format profile                           : LC
    Codec ID                                 : 40
    Duration                                 : 1h 38mn
    Bit rate mode                            : Variable
    Bit rate                                 : 157 Kbps
    Maximum bit rate                         : 219 Kbps
    Channel(s)                               : 2 channels
    Channel positions                        : Front: L R
    Sampling rate                            : 48.0 KHz
    Compression mode                         : Lossy
    Stream size                              : 111 MiB (6%)
    Language                                 : English
    Encoded date                             : UTC 2014-12-28 09:42:10
    Tagged date                              : UTC 2014-12-28 09:42:22
    Text #1
    ID                                       : 4
    Format                                   : Timed text
    Muxing mode                              : sbtl
    Codec ID                                 : tx3g
    Duration                                 : 1h 29mn
    Bit rate mode                            : Variable
    Bit rate                                 : 30 bps
    Stream size                              : 19.8 KiB (0%)
    Language                                 : English
    Encoded date                             : UTC 2014-12-28 09:42:10
    Tagged date                              : UTC 2014-12-28 09:42:10
    Text #2
    ID                                       : 5
    Format                                   : Apple text
    Codec ID                                 : text
    Duration                                 : 1h 38mn
    Bit rate mode                            : Constant
    Bit rate                                 : 0 bps
    Stream size                              : 234 Bytes (0%)
    Language                                 : English
    Encoded date                             : UTC 2014-12-28 09:42:22
    Tagged date                              : UTC 2014-12-28 09:42:22
    Menu
    00:00:00.000                             : 00:00:00.000
    00:09:01.791                             : 00:09:01.374
    00:18:24.312                             : 00:18:24.186
    00:30:15.313                             : 00:30:15.230
    00:39:36.416                             : 00:39:36.040
    00:50:01.832                             : 00:50:01.582
    00:58:53.405                             : 00:58:53.196
    01:12:22.755                             : 01:12:22.672
    01:31:33.405                             : 01:31:32.904

    x264 лог

    x264 [info]: frame I:1743  Avg QP:14.20  size: 69698
    x264 [info]: frame P:43164 Avg QP:17.72  size: 19865
    x264 [info]: frame B:96909 Avg QP:19.55  size:  6675
    x264 [info]: consecutive B-frames:  8.4%  7.8% 16.5% 27.6% 13.7% 21.5%  4.5%
    x264 [info]: mb I  I16..4: 10.7% 64.2% 25.1%
    x264 [info]: mb P  I16..4:  3.1% 14.9%  3.8%  P16..4: 34.5% 20.6% 11.7%  0.0%  0.0%    skip:11.3%
    x264 [info]: mb B  I16..4:  0.3%  1.5%  0.6%  B16..8: 37.5%  9.7%  3.0%  direct: 4.7%  skip:42.6%  L0:42.7% L1:46.3% BI:11.0%
    x264 [info]: 8x8 transform intra:66.9% inter:70.4%
    x264 [info]: coded y,uvDC,uvAC intra: 77.6% 77.5% 48.9% inter: 25.6% 21.7% 2.4%
    x264 [info]: i16 v,h,dc,p: 28% 15%  7% 49%
    x264 [info]: i8 v,h,dc,ddl,ddr,vr,hd,vl,hu:  8%  7%  6% 10% 15% 14% 14% 12% 13%
    x264 [info]: i4 v,h,dc,ddl,ddr,vr,hd,vl,hu:  8%  6%  3% 10% 16% 15% 15% 12% 15%
    x264 [info]: i8c dc,h,v,p: 42% 23% 19% 16%
    x264 [info]: Weighted P-Frames: Y:6.9% UV:3.5%
    x264 [info]: ref P L0: 55.7% 13.2% 12.2%  5.8%  3.8%  3.1%  2.3%  1.7%  1.7%  0.6%  0.0%
    x264 [info]: ref B L0: 79.8%  9.1%  4.5%  2.2%  2.2%  1.2%  0.8%  0.3%
    x264 [info]: ref B L1: 93.6%  6.4%
    x264 [info]: kb/s:2198.88

    Скриншоты

    -

    Релиз подготовлен для просмотра на Apple TV, iPad, iPhone, iPod Touch.
    Для просмотра данного релиза на компьютере с ОС Windows рекомендуется использовать VLC media player
    Скачать .torrent

    Скачать торрент-файл бесплатно и на максимальной скорости!

    Как скачивать? · Что такое торрент? · Рейтинг и ограничения

    !ВНИМАНИЕ!
    Сайт не распространяет и не хранит электронные версии произведений, а занимается лишь лишь предоставлением доступа к создаваемому пользователями каталогу ссылок на торрент-файлы, которые содержат только списки хеш-сумм, убедительная просьба с жалобами обращаться напрямую к пользователю. Файлы для обмена на трекере предоставлены пользователями сайта, и администрация не несёт ответственности за их содержание. Просьба не заливать файлы, защищенные авторскими правами, а также файлы нелегального содержания!


    _________________
    [Профиль] [ЛС]
    Показать сообщения:    
    Ответить на тему

    Текущее время: Сегодня, в 16:04

    Часовой пояс: GMT + 2



    Вы не можете начинать темы
    Вы не можете отвечать на сообщения
    Вы не можете редактировать свои сообщения
    Вы не можете удалять свои сообщения
    Вы не можете голосовать в опросах
    Вы не можете прикреплять файлы к сообщениям
    Вы не можете скачивать файлы