BitTorrentTracker PerecTracker.org
BitTorrentTracker PerecTracker.org
    
Регистрация  ·  Вход
 
 · 
Забыли пароль?

  • [iPad] Побудь в моей шкуре / Under the Skin (Джонатан Глейзер / Jonathan Glazer ) [2013, Великобритания, США, Швейцария, Фантастика, триллер, драма, BDRip, SD (576p)] MVO + Original + sub (rus, eng)

    Ответить на тему
     
    Автор Сообщение

    rechyn

    Создавать темы 02-Сен-2015 12:55

           

    [Цитировать]

    Побудь в моей шкуре / Under the Skin
    -
    5.986 / 10 6.20 / 10
    -Год выпуска: 2013
    Страна: Великобритания, США, Швейцария
    Жанр: Фантастика, триллер, драма
    Продолжительность: 01:48:16
    Перевод: Профессиональный (многоголосый закадровый) (Лицензия)
    Оригинальная аудиодорожка: Есть
    Cубтитры: Русские, Английские
    Режиссёр: Джонатан Глейзер
    Сценарий: Уолтер Кэмпбелл, Джонатан Глейзер, Мишель Фабер
    Продюсер: Ник Уэкслер, Джеймс Уилсон, Рено Антониадес
    Оператор: Дэн Лэндин
    Композитор: Мика Ливай
    Художник: Крис Одди, Эмер О’Салливан, Стивен Ноубл
    Монтаж: Пол Уоттс
    В ролях: Скарлетт Йоханссон, Джереми МакУильямс, Линси Тейлор Маккэй, Даги МакКоннелл, Кевин МакАлинден, Д. Мид, Эндрю Горман, Джо Шула, Криштоф Гадек, Рой Армстронг
    Бюджет: $13 300 000
    Сборы в США: $2 614 251
    Сборы в мире: + $2 766 000 = $5 380 251
    Сборы в России: $85 078
    Мировая премьера: 29 августа 2013
    Премьера (РФ): 31 июля 2014, «Top Film Distribution»
    Релиз на DVD: 5 ноября 2014, «Lizard Cinema Trade»
    Описание: Действие развивается в Шотландии, где каждый день по трассе Эдинбург-Глазго ездит задрипанная машина с роскошным водителем. За рулем пышногрудая брюнетка с огромными зелеными глазами. Она подбирает автостопщиков, в основном здоровых и мощных мужчин, и парализует их. Девица на поверку оказывается представительницей иной цивилизации, чьи сородичи развели бурную деятельность в Шотландии.-Качество исходника: BDRemux
    Качество: BDRip
    Тип: SD (576p)
    Контейнер: M4V
    Видео: H.264, 992x576, 1.722, 2 200 Kbps, 23.976 fps
    Аудио 1: Русский/Профессиональный (многоголосый закадровый) (Лицензия), AAC / 2.0 / 156 Kbps / 48.0 KHz
    Аудио 2: Английский/Оригинальная дорожка , AAC / 2.0 / 153 Kbps / 48.0 KHz
    Субтитры 1: Русские полные
    Субтитры 2: Английские полные
    -

    iTunes Meta Tags

    Sort Name: Under the Skin
    XID: Apple:vendor_id:2013-467241
    contentID: 878950023
    Copyright: © 2013 Seventh Kingdom Productions Limited, Channel Four Television Corporation and The British Film Institute
    Screenwriters: Уолтер Кэмпбелл, Джонатан Глейзер, Мишель Фабер
    Producers: Ник Уэкслер, Джеймс Уилсон, Джиллиан Берри
    Director: Джонатан Глейзер
    Cast: Скарлетт Йоханссон, Джереми МакУильямс, Линси Тейлор Маккэй, Даги МакКоннелл, Кевин МакАлинден, Д. Мид, Эндрю Горман, Джо Шула, Криштоф Гадек, Рой Армстронг
    Studio: A24
    Rating: 131
    Long Description: Таинственная соблазнительница охотится на жителей Шотландии...
    Description: Таинственная соблазнительница охотится на жителей Шотландии...
    Release Date: 2013-08-29T08:00:00Z
    Genre: Thriller
    Artist: Jonathan Glazer
    Name: Under the Skin (2014)

    MediaInfo

    General
    Complete name                            : /Users/imac/HandBrake/Under.the.Skin.(SD).(pk).m4v
    Format                                   : MPEG-4
    Codec ID                                 : M4V
    File size                                : 1.90 GiB
    Duration                                 : 1h 48mn
    Overall bit rate mode                    : Variable
    Overall bit rate                         : 2 514 Kbps
    Movie name                               : Under the Skin (2014)
    Performer                                : Jonathan Glazer
    Genre                                    : Thriller
    Recorded date                            : UTC 2013-08-29 08:00:00
    Encoded date                             : UTC 2014-12-29 11:21:12
    Tagged date                              : UTC 2014-12-29 11:22:09
    Copyright                                : © 2013 Seventh Kingdom Productions Limited, Channel Four Television Corporation and The British Film Institute
    Cover                                    : Yes
    sonm                                     : Under the Skin
    desc                                     : Таинственная соблазнительница охотится на жителей Шотландии...
    ldes                                     : Таинственная соблазнительница охотится на жителей Шотландии...
    stik                                     : 9
    rtng                                     : 0
    cnID                                     : 878950023
    xid                                      : Apple:vendor_id:2013-467241
    iTunEXTC                                 : uk-movie|15|350|
    iTunMOVI                                 : <?xml version=\"1.0\" encoding=\"UTF-8\"?> / <!DOCTYPE plist PUBLIC \"-//Apple//DTD PLIST 1.0//EN\" \"http://anonym.to/?http://www.apple.com/DTDs/PropertyList-1.0.dtd\"> / <plist version=\"1.0\"> / <dict> /  <key>cast</key> /  <array> /   <dict> /    <key>name</key> /    <string>Скарлетт Йоханссон</string> /   </dict> /   <dict> /    <key>name</key> /    <string>Джереми МакУильямс</string> /   </dict> /   <dict> /    <key>name</key> /    <string>Линси Тейлор Маккэй</string> /   </dict> /   <dict> /    <key>name</key> /    <string>Даги МакКоннелл</string> /   </dict> /   <dict> /    <key>name</key> /    <string>Кевин МакАлинден</string> /   </dict> /   <dict> /    <key>name</key> /    <string>Д. Мид</string> /   </dict> /   <dict> /    <key>name</key> /    <string>Эндрю Горман</string> /   </dict> /   <dict> /    <key>name</key> /    <string>Джо Шула</string> /   </dict> /   <dict> /    <key>name</key> /    <string>Криштоф Гадек</string> /   </dict> /   <dict> /    <key>name</key> /    <string>Рой Армстронг</string> /   </dict> /  </array> /  <key>directors</key> /  <array> /   <dict> /    <key>name</key> /    <string>Джонатан Глейзер</string> /   </dict> /  </array> /  <key>producers</key> /  <array> /   <dict> /    <key>name</key> /    <string>Ник Уэкслер</string> /   </dict> /   <dict> /    <key>name</key> /    <string>Джеймс Уилсон</string> /   </dict> /   <dict> /    <key>name</key> /    <string>Джиллиан Берри</string> /   </dict> /  </array> /  <key>screenwriters</key> /  <array> /   <dict> /    <key>name</key> /    <string>Уолтер Кэмпбелл</string> /   </dict> /   <dict> /    <key>name</key> /    <string>Джонатан Глейзер</string> /   </dict> /   <dict> /    <key>name</key> /    <string>Мишель Фабер</string> /   </dict> /  </array> /  <key>studio</key> /  <string>A24</string> / </dict> / </plist>
    Video
    ID                                       : 1
    Format                                   : AVC
    Format/Info                              : Advanced Video Codec
    Format profile                           : High@L3.2
    Format settings, CABAC                   : Yes
    Format settings, ReFrames                : 9 frames
    Codec ID                                 : avc1
    Codec ID/Info                            : Advanced Video Coding
    Duration                                 : 1h 48mn
    Bit rate mode                            : Variable
    Bit rate                                 : 2 200 Kbps
    Width                                    : 992 pixels
    Height                                   : 576 pixels
    Display aspect ratio                     : 1.722
    Frame rate mode                          : Variable
    Frame rate                               : 23.976 fps
    Minimum frame rate                       : 23.810 fps
    Maximum frame rate                       : 24.272 fps
    Color space                              : YUV
    Chroma subsampling                       : 4:2:0
    Bit depth                                : 8 bits
    Scan type                                : Progressive
    Bits/(Pixel*Frame)                       : 0.161
    Stream size                              : 1.66 GiB (87%)
    Writing library                          : x264 core 142 r2479 dd79a61
    Encoding settings                        : cabac=1 / ref=9 / deblock=1:0:0 / analyse=0x3:0x113 / me=umh / subme=9 / psy=1 / psy_rd=1.00:0.00 / mixed_ref=1 / me_range=32 / chroma_me=1 / trellis=1 / 8x8dct=1 / cqm=0 / deadzone=21,11 / fast_pskip=1 / chroma_qp_offset=-2 / threads=36 / lookahead_threads=4 / sliced_threads=0 / nr=0 / decimate=1 / interlaced=0 / bluray_compat=0 / constrained_intra=0 / bframes=6 / b_pyramid=2 / b_adapt=2 / b_bias=0 / direct=1 / weightb=1 / open_gop=0 / weightp=2 / keyint=240 / keyint_min=24 / scenecut=40 / intra_refresh=0 / rc_lookahead=40 / rc=2pass / mbtree=1 / bitrate=2200 / ratetol=1.0 / qcomp=0.60 / qpmin=0 / qpmax=69 / qpstep=4 / cplxblur=20.0 / qblur=0.5 / ip_ratio=1.40 / aq=1:1.00
    Language                                 : English
    Encoded date                             : UTC 2014-12-29 11:21:12
    Tagged date                              : UTC 2014-12-29 11:21:19
    Color primaries                          : BT.709-5, BT.1361, IEC 61966-2-4, SMPTE RP177
    Transfer characteristics                 : BT.709-5, BT.1361
    Matrix coefficients                      : BT.709-5, BT.1361, IEC 61966-2-4 709, SMPTE RP177
    Audio #1
    ID                                       : 2
    Format                                   : AAC
    Format/Info                              : Advanced Audio Codec
    Format profile                           : LC
    Codec ID                                 : 40
    Duration                                 : 1h 48mn
    Bit rate mode                            : Variable
    Bit rate                                 : 156 Kbps
    Maximum bit rate                         : 247 Kbps
    Channel(s)                               : 2 channels
    Channel positions                        : Front: L R
    Sampling rate                            : 48.0 KHz
    Compression mode                         : Lossy
    Stream size                              : 121 MiB (6%)
    Language                                 : Russian
    Encoded date                             : UTC 2014-12-29 11:21:12
    Tagged date                              : UTC 2014-12-29 11:21:20
    Audio #2
    ID                                       : 3
    Format                                   : AAC
    Format/Info                              : Advanced Audio Codec
    Format profile                           : LC
    Codec ID                                 : 40
    Duration                                 : 1h 48mn
    Bit rate mode                            : Variable
    Bit rate                                 : 153 Kbps
    Maximum bit rate                         : 260 Kbps
    Channel(s)                               : 2 channels
    Channel positions                        : Front: L R
    Sampling rate                            : 48.0 KHz
    Compression mode                         : Lossy
    Stream size                              : 118 MiB (6%)
    Language                                 : English
    Encoded date                             : UTC 2014-12-29 11:21:12
    Tagged date                              : UTC 2014-12-29 11:21:18
    Text #1
    ID                                       : 4
    Format                                   : Timed text
    Muxing mode                              : sbtl
    Codec ID                                 : tx3g
    Duration                                 : 1h 29mn
    Bit rate mode                            : Variable
    Bit rate                                 : 24 bps
    Stream size                              : 15.6 KiB (0%)
    Language                                 : Russian
    Encoded date                             : UTC 2014-12-29 11:21:12
    Tagged date                              : UTC 2014-12-29 11:21:12
    Text #2
    ID                                       : 5
    Format                                   : Timed text
    Muxing mode                              : sbtl
    Codec ID                                 : tx3g
    Duration                                 : 1h 29mn
    Bit rate mode                            : Variable
    Bit rate                                 : 17 bps
    Stream size                              : 11.0 KiB (0%)
    Language                                 : English
    Encoded date                             : UTC 2014-12-29 11:21:12
    Tagged date                              : UTC 2014-12-29 11:21:12

    x264 лог

    x264 [info]: frame I:955   Avg QP:10.42  size: 84984
    x264 [info]: frame P:34071 Avg QP:13.48  size: 24285
    x264 [info]: frame B:120730 Avg QP:15.86  size:  7255
    x264 [info]: consecutive B-frames:  1.9%  2.6%  9.2% 19.1% 13.0% 43.8% 10.3%
    x264 [info]: mb I  I16..4: 19.8% 61.2% 19.0%
    x264 [info]: mb P  I16..4:  2.0%  7.3%  1.8%  P16..4: 32.1% 21.3% 15.7%  0.0%  0.0%    skip:19.7%
    x264 [info]: mb B  I16..4:  0.2%  0.8%  0.3%  B16..8: 31.4%  9.3%  2.6%  direct: 3.9%  skip:51.4%  L0:48.9% L1:43.3% BI: 7.8%
    x264 [info]: 8x8 transform intra:64.1% inter:67.3%
    x264 [info]: coded y,uvDC,uvAC intra: 77.0% 74.9% 54.9% inter: 21.7% 17.6% 4.0%
    x264 [info]: i16 v,h,dc,p: 59% 11%  7% 22%
    x264 [info]: i8 v,h,dc,ddl,ddr,vr,hd,vl,hu:  8% 10%  9%  9% 13% 12% 14% 11% 14%
    x264 [info]: i4 v,h,dc,ddl,ddr,vr,hd,vl,hu:  6% 12%  4%  8% 13% 11% 17% 10% 18%
    x264 [info]: i8c dc,h,v,p: 46% 27% 15% 12%
    x264 [info]: Weighted P-Frames: Y:4.2% UV:2.3%
    x264 [info]: ref P L0: 43.5%  5.5% 18.8%  7.9%  7.4%  5.4%  5.1%  2.9%  3.1%  0.6%  0.0%
    x264 [info]: ref B L0: 59.0% 15.8%  9.0%  5.1%  4.6%  3.6%  2.1%  0.7%
    x264 [info]: ref B L1: 89.0% 11.0%
    x264 [info]: kb/s:2197.52

    Скриншоты

    -

    Релиз подготовлен для просмотра на Apple TV, iPad, iPhone, iPod Touch.
    Для просмотра данного релиза на компьютере с ОС Windows рекомендуется использовать VLC media player
    Скачать .torrent

    Скачать торрент-файл бесплатно и на максимальной скорости!

    Как скачивать? · Что такое торрент? · Рейтинг и ограничения

    !ВНИМАНИЕ!
    Сайт не распространяет и не хранит электронные версии произведений, а занимается лишь лишь предоставлением доступа к создаваемому пользователями каталогу ссылок на торрент-файлы, которые содержат только списки хеш-сумм, убедительная просьба с жалобами обращаться напрямую к пользователю. Файлы для обмена на трекере предоставлены пользователями сайта, и администрация не несёт ответственности за их содержание. Просьба не заливать файлы, защищенные авторскими правами, а также файлы нелегального содержания!


    _________________
    [Профиль] [ЛС]
    Показать сообщения:    
    Ответить на тему

    Текущее время: Сегодня, в 18:23

    Часовой пояс: GMT + 2



    Вы не можете начинать темы
    Вы не можете отвечать на сообщения
    Вы не можете редактировать свои сообщения
    Вы не можете удалять свои сообщения
    Вы не можете голосовать в опросах
    Вы не можете прикреплять файлы к сообщениям
    Вы не можете скачивать файлы