BitTorrentTracker PerecTracker.org
BitTorrentTracker PerecTracker.org
    
Регистрация  ·  Вход
 
 · 
Забыли пароль?

  • Крылья (Лариса Шепитько) [1966, драма, DVDRip, 480p] Original

    Ответить на тему
     
    Автор Сообщение

    rechyn

    Создавать темы 02-Сен-2015 12:55

           

    [Цитировать]

    Крылья

    Год выпуска: 1966
    Страна: СССР
    Жанр: драма
    Продолжительность: 01:21:13
    Режиссёр: Лариса Шепитько
    Сценарий: Валентин Ежов, Наталья Рязанцева
    В ролях: Майя Булгакова, Сергей Никоненко, Жанна Болотова, Пантелеймон Крымов, Леонид Дьячков, Владимир Горелов, Юрий Медведев, Николай Граббе, Жанна Александрова, Римма Маркова
    Описание:
    Давно окончилась война, но для героини фильма, бывшей летчицы, только те годы и были наполнены подлинным смыслом. Она глубоко переживает разлад с действительностью, отсутствие контакта с дочерью. Ей никак не удается приспособиться к этой мирной, обыденной жизни, в ней не гаснет пронзительное желание летать...
    Исходник: DVD5
    Контейнер: m4v
    Видео: H.264, 640@660x480, 1800 kbps, 25 fps
    Аудио: AAC, 2 ch, 160 kbps, 48 kHz
    Главы: прописаны

    iTunes Meta Tags

    Name: Крылья
    Artist: Лариса Шепитько
    Release Date: 1966-11-10T08:00:00Z
    Description: Давно окончилась война, но для героини фильма, бывшей летчицы, только те годы и были наполнены подлинным смыслом.
    Long Description: Давно окончилась война, но для героини фильма, бывшей летчицы, только те годы и были наполнены подлинным смыслом. Она глубоко переживает разлад с действительностью, отсутствие контакта с дочерью. Ей никак не удается приспособиться к этой мирной, обыденной жизни, в ней не гаснет пронзительное желание летать...
    Cast: Майя Булгакова, Сергей Никоненко, Жанна Болотова, Пантелеймон Крымов, Леонид Дьячков, Владимир Горелов, Юрий Медведев, Николай Граббе, Жанна Александрова, Римма Маркова
    Director: Лариса Шепитько
    Screenwriters: Валентин Ежов, Наталья Рязанцева
    contentID: 45002
    XID: Apple:vendor_id:1966-45002

    x264 log

    x264 [info]: frame I:3294 Avg QP:19.55 size: 16993
    x264 [info]: frame P:118538 Avg QP:22.29 size: 8777
    x264 [info]: mb I I16..4: 41.0% 0.0% 59.0%
    x264 [info]: mb P I16..4: 0.5% 0.0% 2.0% P16..4: 53.2% 23.7% 9.7% 0.0% 0.0% skip:10.9%
    x264 [info]: coded y,uvDC,uvAC intra: 79.7% 0.0% 0.0% inter: 41.3% 0.0% 0.0%
    x264 [info]: i16 v,h,dc,p: 31% 19% 9% 41%
    x264 [info]: i4 v,h,dc,ddl,ddr,vr,hd,vl,hu: 7% 5% 3% 16% 19% 16% 14% 11% 9%
    x264 [info]: i8c dc,h,v,p: 100% 0% 0% 0%
    x264 [info]: ref P L0: 69.5% 19.6% 10.9%
    x264 [info]: kb/s:1799.85

    MediaInfo

    General
    Format : MPEG-4
    Format profile : Base Media / Version 2
    Codec ID : mp42
    File size : 1.12 GiB
    Duration : 1h 21mn
    Overall bit rate mode : Variable
    Overall bit rate : 1 966 Kbps
    Movie name : Крылья
    Performer : Лариса Шепитько
    Director : Лариса Шепитько
    Actor : Майя Булгакова / Сергей Никоненко / Жанна Болотова / Пантелеймон Крымов / Леонид Дьячков / Владимир Горелов / Юрий Медведев / Николай Граббе / Жанна Александрова / Римма Маркова
    Screenplay by : Валентин Ежов / Наталья Рязанцева
    Production studio : Мосфильм
    Genre : драма
    ContentType : Short Film
    Description : Давно окончилась война, но для героини фильма, бывшей летчицы, только те годы и были наполнены подлинным смыслом.
    Recorded date : 1966-11-10
    Tagged date : UTC 2014-12-18 10:33:02
    Cover : Yes
    Rating : None
    LongDescription : Давно окончилась война, но для героини фильма, бывшей летчицы, только те годы и были наполнены подлинным смыслом. Она глубоко переживает разлад с действительностью, отсутствие контакта с дочерью. Ей никак не удается приспособиться к этой мирной, обыденной жизни, в ней не гаснет пронзительное желание летать...
    AppleStoreCatalogID : 45002
    Vendor : Apple:vendor_id:1966-45002
    Video #1
    ID : 1
    Format : AVC
    Format/Info : Advanced Video Codec
    Format profile : Baseline@L3.0
    Format settings, CABAC : No
    Format settings, ReFrames : 3 frames
    Codec ID : avc1
    Codec ID/Info : Advanced Video Coding
    Duration : 1h 21mn
    Bit rate : 1 800 Kbps
    Width : 640 pixels
    Height : 480 pixels
    Display aspect ratio : 1.373
    Original display aspect ratio : 1.374
    Frame rate mode : Constant
    Frame rate : 25.000 fps
    Color space : YUV
    Chroma subsampling : 4:2:0
    Bit depth : 8 bits
    Scan type : Progressive
    Bits/(Pixel*Frame) : 0.234
    Stream size : 1.02 GiB (92%)
    Writing library : x264 core 142 r2479 dd79a61
    Encoding settings : cabac=0 / ref=3 / deblock=1:-2:-1 / analyse=0x1:0x111 / me=umh / subme=9 / psy=1 / psy_rd=1.00:0.00 / mixed_ref=1 / me_range=32 / chroma_me=1 / trellis=1 / 8x8dct=0 / cqm=0 / deadzone=21,11 / fast_pskip=1 / chroma_qp_offset=-2 / threads=6 / lookahead_threads=1 / sliced_threads=0 / nr=0 / decimate=1 / interlaced=0 / bluray_compat=0 / constrained_intra=0 / bframes=0 / weightp=0 / keyint=250 / keyint_min=25 / scenecut=40 / intra_refresh=0 / rc_lookahead=40 / rc=2pass / mbtree=1 / bitrate=1800 / ratetol=1.0 / qcomp=0.60 / qpmin=0 / qpmax=69 / qpstep=4 / cplxblur=20.0 / qblur=0.5 / vbv_maxrate=5000 / vbv_bufsize=5000 / nal_hrd=none / filler=0 / ip_ratio=1.40 / aq=1:1.00
    Language : Russian
    Color primaries : BT.601 PAL
    Transfer characteristics : BT.709
    Matrix coefficients : BT.601
    Color range : Limited
    Video #2
    ID : 4
    Format : JPEG
    Codec ID : jpeg
    Duration : 1h 21mn
    Bit rate mode : Variable
    Bit rate : 1 002 bps
    Width : 640 pixels
    Height : 465 pixels
    Display aspect ratio : 1.376
    Frame rate mode : Variable
    Frame rate : 0.002 fps
    Minimum frame rate : 0.001 fps
    Maximum frame rate : 0.004 fps
    Color space : YUV
    Chroma subsampling : 4:2:0
    Bit depth : 8 bits
    Compression mode : Lossy
    Bits/(Pixel*Frame) : 1.683
    Stream size : 612 KiB (0%)
    Language : Russian
    Encoded date : UTC 2014-12-18 10:32:58
    Tagged date : UTC 2014-12-18 10:33:02
    Audio
    ID : 2
    Format : AAC
    Format/Info : Advanced Audio Codec
    Format profile : LC
    Codec ID : 40
    Duration : 1h 21mn
    Bit rate mode : Variable
    Bit rate : 161 Kbps
    Maximum bit rate : 190 Kbps
    Channel(s) : 2 channels
    Channel positions : Front: L R
    Sampling rate : 48.0 KHz
    Compression mode : Lossy
    Stream size : 93.3 MiB (8%)
    Title : Stereo
    Language : Russian
    Menu
    ID : 3
    Codec ID : text
    Duration : 1h 21mn
    Language : Russian
    00:00:00.000 : Chapter 1
    00:09:33.741 : Chapter 2
    00:15:52.141 : Chapter 3
    00:27:09.701 : Chapter 4
    00:37:54.861 : Chapter 5
    00:47:51.621 : Chapter 6
    00:56:16.621 : Chapter 7
    01:01:44.821 : Chapter 8
    01:06:07.821 : Chapter 9
    01:12:56.261 : Chapter 10
    Bit rate mode : VBR

    Скриншоты

    Скачать .torrent

    Скачать торрент-файл бесплатно и на максимальной скорости!

    Как скачивать? · Что такое торрент? · Рейтинг и ограничения

    !ВНИМАНИЕ!
    Сайт не распространяет и не хранит электронные версии произведений, а занимается лишь лишь предоставлением доступа к создаваемому пользователями каталогу ссылок на торрент-файлы, которые содержат только списки хеш-сумм, убедительная просьба с жалобами обращаться напрямую к пользователю. Файлы для обмена на трекере предоставлены пользователями сайта, и администрация не несёт ответственности за их содержание. Просьба не заливать файлы, защищенные авторскими правами, а также файлы нелегального содержания!


    _________________
    [Профиль] [ЛС]
    Показать сообщения:    
    Ответить на тему

    Текущее время: Сегодня, в 22:11

    Часовой пояс: GMT + 2



    Вы не можете начинать темы
    Вы не можете отвечать на сообщения
    Вы не можете редактировать свои сообщения
    Вы не можете удалять свои сообщения
    Вы не можете голосовать в опросах
    Вы не можете прикреплять файлы к сообщениям
    Вы не можете скачивать файлы