BitTorrentTracker PerecTracker.org
BitTorrentTracker PerecTracker.org
    
Регистрация  ·  Вход
 
 · 
Забыли пароль?

  • Война и мир (Сергей Бондарчук) [1965-1968, драма, DVDRip, 480p] [Ruscico] Original

    Ответить на тему
     
    Автор Сообщение

    rechyn

    Создавать темы 02-Сен-2015 12:55

           

    [Цитировать]

    Война и мир

    Год выпуска: 1965-1968
    Страна: СССР
    Жанр: драма
    Продолжительность: 06:43:37
    1 серия - 02:20:12
    2 серия - 01:33:18
    3 серия - 01:17:47
    4 серия - 01:32:20
    Режиссёр: Сергей Бондарчук
    Сценарий: Сергей Бондарчук, Василий Соловьев, Лев Толстой
    В ролях: Сергей Бондарчук, Людмила Савельева, Вячеслав Тихонов, Олег Табаков, Борис Захава, Анатолий Кторов, Анастасия Вертинская, Антонина Шуранова, Виктор Станицын, Ирина Скобцева
    Описание:
    Эпическое кинополотно известнейшего советского кинорежиссера Сергея Бондарчука по роману Льва Толстого "Война и мир", с участием всех звезд советского кинематографа...
    Исходник:
    DVD9 [серия 1]
    DVD9 [серия 2]
    DVD9 [серия 3]
    DVD9 [серия 4]
    Контейнер: m4v
    Видео: H.264, 640@852x372 (2.25:1), 1800 kbps, 25 fps
    Аудио: AAC, 2 ch, 160 kbps, 48 kHz
    Главы: прописаны

    iTunes Meta Tags

    1 серия:
    Name: Война и мир I: Андрей Болконский
    Artist: Сергей Бондарчук
    Release Date: 1967-11-02T08:00:00Z
    Description: Эпическое кинополотно известнейшего советского кинорежиссера Сергея Бондарчука по роману Льва Толстого "Война и мир", с участием всех звезд советского кинематографа...
    Long Description: Эпическое кинополотно известнейшего советского кинорежиссера Сергея Бондарчука по роману Льва Толстого "Война и мир", с участием всех звезд советского кинематографа...
    Cast: Сергей Бондарчук, Людмила Савельева, Вячеслав Тихонов, Олег Табаков, Борис Захава, Анатолий Кторов, Анастасия Вертинская, Антонина Шуранова, Виктор Станицын, Ирина Скобцева
    Director: Сергей Бондарчук
    Screenwriters: Сергей Бондарчук, Василий Соловьев, Лев Толстой
    contentID: 38898
    XID: Apple:vendor_id:1965-38898

    x264 log

    1 серия:
    x264 [info]: frame I:3281 Avg QP:18.81 size: 19365
    x264 [info]: frame P:207007 Avg QP:20.96 size: 8833
    x264 [info]: mb I I16..4: 31.3% 0.0% 68.7%
    x264 [info]: mb P I16..4: 1.1% 0.0% 3.7% P16..4: 50.4% 22.8% 9.5% 0.0% 0.0% skip:12.5%
    x264 [info]: coded y,uvDC,uvAC intra: 73.7% 71.0% 22.1% inter: 40.0% 49.0% 0.8%
    x264 [info]: i16 v,h,dc,p: 38% 16% 9% 36%
    x264 [info]: i4 v,h,dc,ddl,ddr,vr,hd,vl,hu: 23% 4% 4% 12% 14% 15% 11% 11% 7%
    x264 [info]: i8c dc,h,v,p: 50% 16% 26% 8%
    x264 [info]: ref P L0: 75.9% 14.7% 9.4%
    x264 [info]: kb/s:1799.40
    2 серия:
    x264 [info]: frame I:2424 Avg QP:16.48 size: 18682
    x264 [info]: frame P:137516 Avg QP:19.23 size: 8826
    x264 [info]: mb I I16..4: 34.1% 0.0% 65.9%
    x264 [info]: mb P I16..4: 1.0% 0.0% 3.3% P16..4: 50.0% 24.1% 10.2% 0.0% 0.0% skip:11.4%
    x264 [info]: coded y,uvDC,uvAC intra: 72.3% 76.1% 34.5% inter: 39.3% 48.7% 1.5%
    x264 [info]: i16 v,h,dc,p: 44% 15% 9% 32%
    x264 [info]: i4 v,h,dc,ddl,ddr,vr,hd,vl,hu: 23% 4% 4% 11% 14% 15% 10% 11% 7%
    x264 [info]: i8c dc,h,v,p: 46% 18% 26% 10%
    x264 [info]: ref P L0: 72.4% 16.4% 11.3%
    x264 [info]: kb/s:1799.28
    3 серия:
    x264 [info]: frame I:3660 Avg QP:21.99 size: 15235
    x264 [info]: frame P:113015 Avg QP:22.90 size: 8798
    x264 [info]: mb I I16..4: 34.6% 0.0% 65.4%
    x264 [info]: mb P I16..4: 1.4% 0.0% 4.9% P16..4: 47.0% 22.5% 9.6% 0.0% 0.0% skip:14.5%
    x264 [info]: coded y,uvDC,uvAC intra: 76.3% 72.0% 19.0% inter: 40.8% 45.4% 0.4%
    x264 [info]: i16 v,h,dc,p: 31% 18% 7% 44%
    x264 [info]: i4 v,h,dc,ddl,ddr,vr,hd,vl,hu: 16% 4% 3% 13% 17% 16% 12% 11% 7%
    x264 [info]: i8c dc,h,v,p: 51% 16% 24% 10%
    x264 [info]: ref P L0: 76.6% 14.5% 8.8%
    x264 [info]: kb/s:1800.06
    4 серия:
    x264 [info]: frame I:4188 Avg QP:19.17 size: 16584
    x264 [info]: frame P:134311 Avg QP:21.39 size: 8722
    x264 [info]: mb I I16..4: 34.7% 0.0% 65.3%
    x264 [info]: mb P I16..4: 1.1% 0.0% 4.9% P16..4: 48.6% 23.3% 9.4% 0.0% 0.0% skip:12.7%
    x264 [info]: coded y,uvDC,uvAC intra: 78.9% 68.1% 22.1% inter: 41.7% 47.7% 0.7%
    x264 [info]: i16 v,h,dc,p: 32% 14% 8% 45%
    x264 [info]: i4 v,h,dc,ddl,ddr,vr,hd,vl,hu: 17% 4% 3% 13% 16% 16% 12% 11% 8%
    x264 [info]: i8c dc,h,v,p: 51% 16% 24% 9%
    x264 [info]: ref P L0: 74.1% 15.9% 10.0%
    x264 [info]: kb/s:1791.99

    MediaInfo

    1 серия:
    General
    Format : MPEG-4
    Format profile : Base Media / Version 2
    Codec ID : mp42
    File size : 1.93 GiB
    Duration : 2h 20mn
    Overall bit rate mode : Variable
    Overall bit rate : 1 970 Kbps
    Movie name : Война и мир I: Андрей Болконский
    Performer : Сергей Бондарчук
    Director : Сергей Бондарчук
    Actor : Сергей Бондарчук / Людмила Савельева / Вячеслав Тихонов / Олег Табаков / Борис Захава / Анатолий Кторов / Анастасия Вертинская / Антонина Шуранова / Виктор Станицын / Ирина Скобцева
    Screenplay by : Сергей Бондарчук / Василий Соловьев / Лев Толстой
    ContentType : Short Film
    Description : Эпическое кинополотно известнейшего советского кинорежиссера Сергея Бондарчука по роману Льва Толстого "Война и мир", с участием всех звезд советского кинематографа...
    Recorded date : 1965-07-01
    Encoded date : UTC 1904-01-01 00:00:00
    Tagged date : UTC 2015-01-02 12:31:17
    Cover : Yes
    Rating : None
    LongDescription : Эпическое кинополотно известнейшего советского кинорежиссера Сергея Бондарчука по роману Льва Толстого "Война и мир", с участием всех звезд советского кинематографа...
    AppleStoreCatalogID : 38898
    Vendor : Apple:vendor_id:1965-38898
    Video #1
    ID : 1
    Format : AVC
    Format/Info : Advanced Video Codec
    Format profile : Baseline@L3.0
    Format settings, CABAC : No
    Format settings, ReFrames : 3 frames
    Codec ID : avc1
    Codec ID/Info : Advanced Video Coding
    Duration : 2h 20mn
    Bit rate : 1 800 Kbps
    Width : 640 pixels
    Height : 372 pixels
    Display aspect ratio : 2.25:1
    Frame rate mode : Constant
    Frame rate : 25.000 fps
    Color space : YUV
    Chroma subsampling : 4:2:0
    Bit depth : 8 bits
    Scan type : Progressive
    Bits/(Pixel*Frame) : 0.302
    Stream size : 1.76 GiB (91%)
    Writing library : x264 core 142 r2479 dd79a61
    Encoding settings : cabac=0 / ref=3 / deblock=1:-1:-1 / analyse=0x1:0x111 / me=umh / subme=9 / psy=1 / psy_rd=1.00:0.00 / mixed_ref=1 / me_range=32 / chroma_me=1 / trellis=1 / 8x8dct=0 / cqm=0 / deadzone=21,11 / fast_pskip=1 / chroma_qp_offset=-2 / threads=6 / lookahead_threads=1 / sliced_threads=0 / nr=0 / decimate=1 / interlaced=0 / bluray_compat=0 / constrained_intra=0 / bframes=0 / weightp=0 / keyint=250 / keyint_min=25 / scenecut=40 / intra_refresh=0 / rc_lookahead=40 / rc=2pass / mbtree=1 / bitrate=1800 / ratetol=1.0 / qcomp=0.60 / qpmin=0 / qpmax=69 / qpstep=4 / cplxblur=20.0 / qblur=0.5 / vbv_maxrate=5000 / vbv_bufsize=5000 / nal_hrd=none / filler=0 / ip_ratio=1.40 / aq=1:1.00
    Language : Russian
    Encoded date : UTC 1904-01-01 00:00:00
    Tagged date : UTC 1904-01-01 00:00:00
    Color primaries : BT.601 PAL
    Transfer characteristics : BT.709
    Matrix coefficients : BT.601
    Color range : Limited
    Video #2
    ID : 4
    Format : JPEG
    Codec ID : jpeg
    Duration : 2h 20mn
    Bit rate mode : Variable
    Bit rate : 985 bps
    Width : 640 pixels
    Height : 279 pixels
    Display aspect ratio : 2.25:1
    Frame rate mode : Variable
    Frame rate : 0.003 fps
    Minimum frame rate : 0.001 fps
    Maximum frame rate : 0.008 fps
    Color space : YUV
    Chroma subsampling : 4:2:0
    Bit depth : 8 bits
    Compression mode : Lossy
    Bits/(Pixel*Frame) : 1.839
    Stream size : 882 KiB (0%)
    Language : Russian
    Encoded date : UTC 2015-01-02 11:32:09
    Tagged date : UTC 2015-01-02 11:32:10
    Audio
    ID : 2
    Format : AAC
    Format/Info : Advanced Audio Codec
    Format profile : LC
    Codec ID : 40
    Duration : 2h 20mn
    Bit rate mode : Variable
    Bit rate : 165 Kbps
    Maximum bit rate : 262 Kbps
    Channel(s) : 2 channels
    Channel positions : Front: L R
    Sampling rate : 48.0 KHz
    Compression mode : Lossy
    Stream size : 165 MiB (8%)
    Title : Stereo
    Language : Russian
    Encoded date : UTC 1904-01-01 00:00:00
    Tagged date : UTC 1904-01-01 00:00:00
    Menu
    ID : 3
    Codec ID : text
    Duration : 2h 20mn
    Language : Russian
    Encoded date : UTC 1904-01-01 00:00:00
    Tagged date : UTC 1904-01-01 00:00:00
    00:00:00.000 : Chapter 1
    00:02:20.880 : Chapter 2
    00:05:22.400 : Chapter 3
    00:09:13.200 : Chapter 4
    00:13:15.440 : Chapter 5
    00:15:22.960 : Chapter 6
    00:19:08.080 : Chapter 7
    00:28:40.080 : Chapter 8
    00:31:06.320 : Chapter 9
    00:40:39.760 : Chapter 10
    00:51:34.320 : Chapter 11
    00:54:38.160 : Chapter 12
    00:59:34.480 : Chapter 13
    01:04:15.920 : Chapter 14
    01:11:58.640 : Chapter 15
    01:21:59.120 : Chapter 16
    01:28:02.000 : Chapter 17
    01:40:19.360 : Chapter 18
    01:52:03.840 : Chapter 19
    02:00:34.080 : Chapter 20
    02:08:43.520 : Chapter 21
    02:12:20.480 : Chapter 22
    Bit rate mode : VBR

    Скриншоты

    Скачать .torrent

    Скачать торрент-файл бесплатно и на максимальной скорости!

    Как скачивать? · Что такое торрент? · Рейтинг и ограничения

    !ВНИМАНИЕ!
    Сайт не распространяет и не хранит электронные версии произведений, а занимается лишь лишь предоставлением доступа к создаваемому пользователями каталогу ссылок на торрент-файлы, которые содержат только списки хеш-сумм, убедительная просьба с жалобами обращаться напрямую к пользователю. Файлы для обмена на трекере предоставлены пользователями сайта, и администрация не несёт ответственности за их содержание. Просьба не заливать файлы, защищенные авторскими правами, а также файлы нелегального содержания!


    _________________
    [Профиль] [ЛС]
    Показать сообщения:    
    Ответить на тему

    Текущее время: Сегодня, в 20:13

    Часовой пояс: GMT + 2



    Вы не можете начинать темы
    Вы не можете отвечать на сообщения
    Вы не можете редактировать свои сообщения
    Вы не можете удалять свои сообщения
    Вы не можете голосовать в опросах
    Вы не можете прикреплять файлы к сообщениям
    Вы не можете скачивать файлы