BitTorrentTracker PerecTracker.org
BitTorrentTracker PerecTracker.org
    
Регистрация  ·  Вход
 
 · 
Забыли пароль?

  • [iPad] Убьём жену Уорда / Let\'s Kill Ward\'s Wife (Скотт Фоули / Scott Foley ) [2014, США, Комедия, триллер, драма, WEB-DLRip, SD (576p)] VO + Original + sub (rus, eng)

    Ответить на тему
     
    Автор Сообщение

    rechyn

    Создавать темы 02-Сен-2015 12:55

           

    [Цитировать]

    Убьём жену Уорда / Let's Kill Ward's Wife
    -
    5.362 / 10 5.70 / 10
    -Год выпуска: 2014
    Страна: США
    Жанр: Комедия, триллер, драма
    Продолжительность: 01:22:19
    Перевод: Любительский (одноголосый) (PashaUp)
    Внимание! В фильме присутствует ненормативная лексика.
    Оригинальная аудиодорожка: Есть
    Cубтитры: Русские, Английские
    Режиссёр: Скотт Фоули
    Сценарий: Скотт Фоули
    Продюсер: Джеймс Карпинелло, Скотт Фоули, Джо Хардести
    Оператор: Эдуардо Барраза
    Композитор: Джон Спайкер
    Художник: Линдси Моран, Стив Морден, Рейко Курумада
    Монтаж: Ребекка Вайгольд
    В ролях: Патрик Уилсон, Скотт Фоули, Дональд Фэйсон, Джеймс Карпинелло, Эми Акер, Алекс Бретов, Ава Карпинелло, Дагмара Доминчик, Марика Доминчик, Вероника Доминчик
    Бюджет: $5 000 000
    Мировая премьера: 23 декабря 2014
    Описание: Жена Уорда — настоящая стерва. Все об этом знают. В том числе и сам Уорд. После многочисленных размышлений и разговоров Уорда с друзьями на эту тему происходит случайное происшествие, которое открывает перед ним новый мир проблем и возможностей…-Качество исходника: WEB-DL 1080p
    Качество: WEB-DLRip
    Тип: SD (576p)
    Контейнер: M4V
    Видео: H.264, 1024x432, 2.40:1, 2 200 Kbps, 23.976 fps
    Аудио 1: Русский/Любительский (одноголосый) (PashaUp), AAC / 2.0 / 138 Kbps / 48.0 KHz
    Аудио 2: Английский/Оригинальная дорожка , AAC / 2.0 / 154 Kbps / 48.0 KHz
    Субтитры 1: Русские полные
    Субтитры 2: Английские полные
    -

    iTunes Meta Tags

    Sort Name: Let's Kill Ward's Wife
    XID: Apple:vendor_id:2014-772208
    contentID: 937823460
    Copyright: © 2014 Ward's Wife Film LLC
    Screenwriters: Скотт Фоули
    Producers: Джеймс Карпинелло, Скотт Фоули, Джо Хардести
    Director: Скотт Фоули
    Cast: Патрик Уилсон, Скотт Фоули, Дональд Фэйсон, Джеймс Карпинелло, Эми Акер, Алекс Бретов, Ава Карпинелло, Дагмара Доминчик, Марика Доминчик, Вероника Доминчик
    Studio: Tribeca Film / Well Go USA
    Rating: 0
    Long Description: Жена Уорда - настоящая стерва. Все об этом знают. В том числе и сам Уорд. После многочисленных размышлений и разговоров Уорда с друзьями на эту тему происходит случайное происшествие, которое открывает перед ним новый мир проблем и возможностей...
    Description: Жена Уорда - настоящая стерва. Все об этом знают. В том числе и сам Уорд. После многочисленных размышлений и разговоров Уорда с друзьями на эту тему происходит случайное происшествие, которое открывает перед ним новый мир проблем и возможностей...
    Release Date: 2014-12-23T08:00:00Z
    Genre: Comedy
    Artist: Scott Foley
    Name: Let's Kill Ward's Wife

    MediaInfo

    General
    Complete name                            : /Users/alex/HandBrake/Lets.Kill.Wards.Wife.(SD).(pk).m4v
    Format                                   : MPEG-4
    Codec ID                                 : M4V
    File size                                : 1.43 GiB
    Duration                                 : 1h 21mn
    Overall bit rate mode                    : Variable
    Overall bit rate                         : 2 499 Kbps
    Movie name                               : Let's Kill Ward's Wife
    Performer                                : Scott Foley
    Genre                                    : Comedy
    Recorded date                            : UTC 2014-12-23 08:00:00
    Encoded date                             : UTC 2015-01-09 07:06:43
    Tagged date                              : UTC 2015-01-09 07:07:11
    Copyright                                : © 2014 Ward\'s Wife Film LLC
    Cover                                    : Yes
    sonm                                     : Let's Kill Ward's Wife
    desc                                     : Жена Уорда - настоящая стерва. Все об этом знают. В том числе и сам Уорд. После многочисленных размышлений и разговоров Уорда с друзьями на эту тему происходит случайное происшествие, которое открывает перед ним новый мир проблем и возможностей...
    ldes                                     : Жена Уорда - настоящая стерва. Все об этом знают. В том числе и сам Уорд. После многочисленных размышлений и разговоров Уорда с друзьями на эту тему происходит случайное происшествие, которое открывает перед ним новый мир проблем и возможностей...
    stik                                     : 9
    rtng                                     : 0
    cnID                                     : 937823460
    xid                                      : Apple:vendor_id:2014-772208
    iTunEXTC                                 : mpaa|Unrated|???|
    iTunMOVI                                 : <?xml version=\"1.0\" encoding=\"UTF-8\"?> / <!DOCTYPE plist PUBLIC \"-//Apple//DTD PLIST 1.0//EN\" \"http://anonym.to/?http://www.apple.com/DTDs/PropertyList-1.0.dtd\"> / <plist version=\"1.0\"> / <dict> /  <key>cast</key> /  <array> /   <dict> /    <key>name</key> /    <string>Патрик Уилсон</string> /   </dict> /   <dict> /    <key>name</key> /    <string>Скотт Фоули</string> /   </dict> /   <dict> /    <key>name</key> /    <string>Дональд Фэйсон</string> /   </dict> /   <dict> /    <key>name</key> /    <string>Джеймс Карпинелло</string> /   </dict> /   <dict> /    <key>name</key> /    <string>Эми Акер</string> /   </dict> /   <dict> /    <key>name</key> /    <string>Алекс Бретов</string> /   </dict> /   <dict> /    <key>name</key> /    <string>Ава Карпинелло</string> /   </dict> /   <dict> /    <key>name</key> /    <string>Дагмара Доминчик</string> /   </dict> /   <dict> /    <key>name</key> /    <string>Марика Доминчик</string> /   </dict> /   <dict> /    <key>name</key> /    <string>Вероника Доминчик</string> /   </dict> /  </array> /  <key>directors</key> /  <array> /   <dict> /    <key>name</key> /    <string>Скотт Фоули</string> /   </dict> /  </array> /  <key>producers</key> /  <array> /   <dict> /    <key>name</key> /    <string>Джеймс Карпинелло</string> /   </dict> /   <dict> /    <key>name</key> /    <string>Скотт Фоули</string> /   </dict> /   <dict> /    <key>name</key> /    <string>Джо Хардести</string> /   </dict> /  </array> /  <key>screenwriters</key> /  <array> /   <dict> /    <key>name</key> /    <string>Скотт Фоули</string> /   </dict> /  </array> /  <key>studio</key> /  <string>Tribeca Film / Well Go USA</string> / </dict> / </plist>
    Video #1
    ID                                       : 1
    Format                                   : AVC
    Format/Info                              : Advanced Video Codec
    Format profile                           : High@L3.1
    Format settings, CABAC                   : Yes
    Format settings, ReFrames                : 9 frames
    Codec ID                                 : avc1
    Codec ID/Info                            : Advanced Video Coding
    Duration                                 : 1h 21mn
    Bit rate mode                            : Variable
    Bit rate                                 : 2 200 Kbps
    Width                                    : 1 024 pixels
    Height                                   : 432 pixels
    Display aspect ratio                     : 2.40:1
    Frame rate mode                          : Variable
    Frame rate                               : 23.976 fps
    Minimum frame rate                       : 23.923 fps
    Maximum frame rate                       : 24.026 fps
    Color space                              : YUV
    Chroma subsampling                       : 4:2:0
    Bit depth                                : 8 bits
    Scan type                                : Progressive
    Bits/(Pixel*Frame)                       : 0.207
    Stream size                              : 1.26 GiB (88%)
    Writing library                          : x264 core 142 r2479 dd79a61
    Encoding settings                        : cabac=1 / ref=9 / deblock=1:0:0 / analyse=0x3:0x113 / me=umh / subme=9 / psy=1 / psy_rd=1.00:0.00 / mixed_ref=1 / me_range=32 / chroma_me=1 / trellis=1 / 8x8dct=1 / cqm=0 / deadzone=21,11 / fast_pskip=1 / chroma_qp_offset=-2 / threads=12 / lookahead_threads=1 / sliced_threads=0 / nr=0 / decimate=1 / interlaced=0 / bluray_compat=0 / constrained_intra=0 / bframes=6 / b_pyramid=2 / b_adapt=2 / b_bias=0 / direct=1 / weightb=1 / open_gop=0 / weightp=2 / keyint=240 / keyint_min=24 / scenecut=40 / intra_refresh=0 / rc_lookahead=40 / rc=2pass / mbtree=1 / bitrate=2200 / ratetol=1.0 / qcomp=0.60 / qpmin=0 / qpmax=69 / qpstep=4 / cplxblur=20.0 / qblur=0.5 / ip_ratio=1.40 / aq=1:1.00
    Language                                 : English
    Encoded date                             : UTC 2015-01-09 07:06:43
    Tagged date                              : UTC 2015-01-09 07:06:47
    Color primaries                          : BT.709-5, BT.1361, IEC 61966-2-4, SMPTE RP177
    Transfer characteristics                 : BT.709-5, BT.1361
    Matrix coefficients                      : BT.709-5, BT.1361, IEC 61966-2-4 709, SMPTE RP177
    Video #2
    ID                                       : 7
    Format                                   : JPEG
    Codec ID                                 : jpeg
    Duration                                 : 1h 21mn
    Bit rate mode                            : Variable
    Bit rate                                 : 567 bps
    Width                                    : 640 pixels
    Height                                   : 270 pixels
    Display aspect ratio                     : 2.40:1
    Frame rate mode                          : Variable
    Frame rate                               : 0.002 fps
    Minimum frame rate                       : 0.001 fps
    Maximum frame rate                       : 0.006 fps
    Color space                              : YUV
    Chroma subsampling                       : 4:2:0
    Bit depth                                : 8 bits
    Compression mode                         : Lossy
    Bits/(Pixel*Frame)                       : 1.641
    Stream size                              : 346 KiB (0%)
    Language                                 : English
    Encoded date                             : UTC 2015-01-09 07:06:51
    Tagged date                              : UTC 2015-01-09 07:06:51
    Audio #1
    ID                                       : 2
    Format                                   : AAC
    Format/Info                              : Advanced Audio Codec
    Format profile                           : LC
    Codec ID                                 : 40
    Duration                                 : 1h 21mn
    Bit rate mode                            : Variable
    Bit rate                                 : 138 Kbps
    Maximum bit rate                         : 159 Kbps
    Channel(s)                               : 2 channels
    Channel positions                        : Front: L R
    Sampling rate                            : 48.0 KHz
    Compression mode                         : Lossy
    Stream size                              : 80.6 MiB (6%)
    Language                                 : Russian
    Encoded date                             : UTC 2015-01-09 07:06:43
    Tagged date                              : UTC 2015-01-09 07:06:49
    Audio #2
    ID                                       : 3
    Format                                   : AAC
    Format/Info                              : Advanced Audio Codec
    Format profile                           : LC
    Codec ID                                 : 40
    Duration                                 : 1h 21mn
    Bit rate mode                            : Variable
    Bit rate                                 : 154 Kbps
    Maximum bit rate                         : 211 Kbps
    Channel(s)                               : 2 channels
    Channel positions                        : Front: L R
    Sampling rate                            : 48.0 KHz
    Compression mode                         : Lossy
    Stream size                              : 90.3 MiB (6%)
    Language                                 : English
    Encoded date                             : UTC 2015-01-09 07:06:43
    Tagged date                              : UTC 2015-01-09 07:06:49
    Text #1
    ID                                       : 4
    Format                                   : Timed text
    Muxing mode                              : sbtl
    Codec ID                                 : tx3g
    Duration                                 : 1h 18mn
    Bit rate mode                            : Variable
    Bit rate                                 : 145 bps
    Stream size                              : 83.4 KiB (0%)
    Language                                 : Russian
    Encoded date                             : UTC 2015-01-09 07:06:43
    Tagged date                              : UTC 2015-01-09 07:06:43
    Text #2
    ID                                       : 5
    Format                                   : Timed text
    Muxing mode                              : sbtl
    Codec ID                                 : tx3g
    Duration                                 : 1h 21mn
    Bit rate mode                            : Variable
    Bit rate                                 : 116 bps
    Stream size                              : 69.5 KiB (0%)
    Language                                 : English
    Encoded date                             : UTC 2015-01-09 07:06:43
    Tagged date                              : UTC 2015-01-09 07:06:43
    Text #3
    ID                                       : 6
    Format                                   : Apple text
    Codec ID                                 : text
    Duration                                 : 1h 21mn
    Bit rate mode                            : Variable
    Bit rate                                 : 0 bps
    Stream size                              : 231 Bytes (0%)
    Language                                 : English
    Encoded date                             : UTC 2015-01-09 07:06:49
    Tagged date                              : UTC 2015-01-09 07:06:49
    Menu
    00:00:00.000                             : Chapter 1
    00:07:58.603                             : Chapter 2
    00:16:15.558                             : Chapter 3
    00:24:41.605                             : Chapter 4
    00:34:31.569                             : Chapter 5
    00:42:57.575                             : Chapter 6
    00:52:20.596                             : Chapter 7
    01:04:24.611                             : Chapter 8
    01:12:23.589                             : Chapter 9
    01:19:02.571                             : Chapter 10

    x264 лог

    x264 [info]: frame I:1085  Avg QP: 8.95  size:100188
    x264 [info]: frame P:30268 Avg QP:11.69  size: 27426
    x264 [info]: frame B:86390 Avg QP:15.58  size:  4760
    x264 [info]: consecutive B-frames:  1.9%  3.9%  4.5% 73.7%  5.7%  7.9%  2.3%
    x264 [info]: mb I  I16..4:  8.3% 56.5% 35.1%
    x264 [info]: mb P  I16..4:  1.0%  6.7%  2.3%  P16..4: 31.2% 25.5% 22.5%  0.0%  0.0%    skip:10.8%
    x264 [info]: mb B  I16..4:  0.1%  0.6%  0.3%  B16..8: 28.8% 10.5%  3.4%  direct: 4.0%  skip:52.3%  L0:36.2% L1:45.1% BI:18.7%
    x264 [info]: 8x8 transform intra:64.0% inter:55.6%
    x264 [info]: coded y,uvDC,uvAC intra: 87.1% 76.7% 66.5% inter: 24.5% 18.5% 6.4%
    x264 [info]: i16 v,h,dc,p: 41% 20% 10% 29%
    x264 [info]: i8 v,h,dc,ddl,ddr,vr,hd,vl,hu: 17% 15% 13%  7%  9% 10%  9% 10% 11%
    x264 [info]: i4 v,h,dc,ddl,ddr,vr,hd,vl,hu: 14% 12%  6%  8% 13% 13% 12% 10% 11%
    x264 [info]: i8c dc,h,v,p: 51% 22% 19%  8%
    x264 [info]: Weighted P-Frames: Y:0.8% UV:0.4%
    x264 [info]: ref P L0: 60.1%  9.3% 14.3%  4.6%  3.7%  2.6%  2.4%  1.4%  1.5%  0.1%  0.0%
    x264 [info]: ref B L0: 84.0%  8.6%  3.1%  1.5%  1.0%  0.9%  0.6%  0.3%
    x264 [info]: ref B L1: 95.6%  4.4%
    x264 [info]: kb/s:2199.26

    Скриншоты

    -

    Релиз подготовлен для просмотра на Apple TV, iPad, iPhone, iPod Touch.
    Для просмотра данного релиза на компьютере с ОС Windows рекомендуется использовать VLC media player
    Скачать .torrent

    Скачать торрент-файл бесплатно и на максимальной скорости!

    Как скачивать? · Что такое торрент? · Рейтинг и ограничения

    !ВНИМАНИЕ!
    Сайт не распространяет и не хранит электронные версии произведений, а занимается лишь лишь предоставлением доступа к создаваемому пользователями каталогу ссылок на торрент-файлы, которые содержат только списки хеш-сумм, убедительная просьба с жалобами обращаться напрямую к пользователю. Файлы для обмена на трекере предоставлены пользователями сайта, и администрация не несёт ответственности за их содержание. Просьба не заливать файлы, защищенные авторскими правами, а также файлы нелегального содержания!


    _________________
    [Профиль] [ЛС]
    Показать сообщения:    
    Ответить на тему

    Текущее время: Сегодня, в 21:21

    Часовой пояс: GMT + 2



    Вы не можете начинать темы
    Вы не можете отвечать на сообщения
    Вы не можете редактировать свои сообщения
    Вы не можете удалять свои сообщения
    Вы не можете голосовать в опросах
    Вы не можете прикреплять файлы к сообщениям
    Вы не можете скачивать файлы