BitTorrentTracker PerecTracker.org
BitTorrentTracker PerecTracker.org
    
Регистрация  ·  Вход
 
 · 
Забыли пароль?

  • Братья Карамазовы (Кирилл Лавров, Иван Пырьев, Михаил Ульянов) [1968, драма, DVDRip, 480p] Original, sub (rus, eng)

    Ответить на тему
     
    Автор Сообщение

    rechyn

    Создавать темы 02-Сен-2015 12:55

           

    [Цитировать]

    Братья Карамазовы

    Год выпуска: 1968
    Страна: СССР
    Жанр: драма
    Продолжительность: 01:17:09 + 01:09:12 + 01:11:46 = 03:38:07
    Режиссёр: Кирилл Лавров, Иван Пырьев, Михаил Ульянов
    Сценарий: Иван Пырьев, Фёдор Достоевский
    В ролях: Михаил Ульянов, Лионелла Пырьева, Кирилл Лавров, Андрей Мягков, Марк Прудкин, Светлана Коркошко, Валентин Никулин, Павел Павленко, Андрей Абрикосов, Геннадий Юхтин
    Описание:
    Экранизация одноименного романа Федора Достоевского.
    B фильме поднимаются вопросы o корнях зла и источниках дoбpa, o том, как cooтнocятcя эти начала в душе человека, в мире, в котором он живет.
    Исходник: DVD5 [серия 1] + DVD9 [серии 2,3]
    Контейнер: m4v
    Видео: H.264, 640@853x362 (2.35:1), 1600 kbps, 25 fps
    Аудио: AAC, 2 ch, 160 kbps, 48 kHz
    Субтитры: русские, английские
    Главы: прописаны

    iTunes Meta Tags

    Name: Братья Карамазовы
    Artist: Кирилл Лавров, Иван Пырьев, Михаил Ульянов
    Release Date: 1969-01-10T08:00:00Z
    Description: B фильме поднимаются вопросы o корнях зла и источниках дoбpa, o том, как cooтнocятcя эти начала в душе человека, в мире, в котором он живет.
    Long Description: B фильме поднимаются вопросы o корнях зла и источниках дoбpa, o том, как cooтнocятcя эти начала в душе человека, в мире, в котором он живет.
    Cast: Михаил Ульянов, Лионелла Пырьева, Кирилл Лавров, Андрей Мягков, Марк Прудкин, Светлана Коркошко, Валентин Никулин, Павел Павленко, Андрей Абрикосов, Геннадий Юхтин
    Director: Кирилл Лавров, Иван Пырьев, Михаил Ульянов
    Screenwriters: Иван Пырьев, Фёдор Достоевский
    contentID: 46217
    XID: Apple:vendor_id:1968-46217

    x264 log

    1 серия:
    x264 [info]: frame I:597 Avg QP:15.82 size: 45849
    x264 [info]: frame P:115128 Avg QP:18.47 size: 7804
    x264 [info]: mb I I16..4: 7.3% 0.0% 92.7%
    x264 [info]: mb P I16..4: 0.1% 0.0% 0.7% P16..4: 50.3% 23.2% 10.5% 0.0% 0.0% skip:15.2%
    x264 [info]: coded y,uvDC,uvAC intra: 89.6% 89.0% 69.7% inter: 40.3% 43.3% 5.8%
    x264 [info]: i16 v,h,dc,p: 45% 10% 11% 35%
    x264 [info]: i4 v,h,dc,ddl,ddr,vr,hd,vl,hu: 16% 5% 3% 11% 14% 17% 11% 14% 8%
    x264 [info]: i8c dc,h,v,p: 45% 13% 32% 10%
    x264 [info]: ref P L0: 78.2% 13.9% 7.9%
    x264 [info]: kb/s:1599.97
    2 серия:
    x264 [info]: frame I:824 Avg QP:17.26 size: 32467
    x264 [info]: frame P:102978 Avg QP:18.93 size: 7800
    x264 [info]: mb I I16..4: 15.3% 0.0% 84.7%
    x264 [info]: mb P I16..4: 0.3% 0.0% 1.4% P16..4: 50.6% 24.1% 10.6% 0.0% 0.0% skip:12.9%
    x264 [info]: coded y,uvDC,uvAC intra: 85.6% 86.8% 58.3% inter: 39.8% 46.7% 4.7%
    x264 [info]: i16 v,h,dc,p: 38% 12% 9% 41%
    x264 [info]: i4 v,h,dc,ddl,ddr,vr,hd,vl,hu: 11% 4% 3% 13% 17% 18% 12% 14% 8%
    x264 [info]: i8c dc,h,v,p: 45% 15% 27% 12%
    x264 [info]: ref P L0: 77.2% 14.4% 8.4%
    x264 [info]: kb/s:1599.19
    3 серия:
    x264 [info]: frame I:878 Avg QP:16.98 size: 32389
    x264 [info]: frame P:106776 Avg QP:19.41 size: 7801
    x264 [info]: mb I I16..4: 16.5% 0.0% 83.5%
    x264 [info]: mb P I16..4: 0.4% 0.0% 0.9% P16..4: 52.1% 24.9% 10.7% 0.0% 0.0% skip:10.9%
    x264 [info]: coded y,uvDC,uvAC intra: 83.7% 69.4% 38.1% inter: 40.8% 48.8% 2.9%
    x264 [info]: i16 v,h,dc,p: 39% 14% 13% 34%
    x264 [info]: i4 v,h,dc,ddl,ddr,vr,hd,vl,hu: 10% 4% 4% 14% 17% 17% 13% 13% 8%
    x264 [info]: i8c dc,h,v,p: 52% 15% 25% 8%
    x264 [info]: ref P L0: 73.0% 16.9% 10.1%
    x264 [info]: kb/s:1600.27

    MediaInfo

    1 серия:
    General
    Complete name : /Users/Olorin/Movies/Downloads/Братья Карамазовы/[1 серия] Братья Карамазовы.m4v
    Format : MPEG-4
    Codec ID : M4V
    File size : 974 MiB
    Duration : 1h 17mn
    Overall bit rate mode : Variable
    Overall bit rate : 1 766 Kbps
    Movie name : Братья Карамазовы [1 серия]
    Performer : Кирилл Лавров, Иван Пырьев, Михаил Ульянов
    Director : Кирилл Лавров / Иван Пырьев / Михаил Ульянов
    Actor : Михаил Ульянов / Лионелла Пырьева / Кирилл Лавров / Андрей Мягков / Марк Прудкин / Светлана Коркошко / Валентин Никулин / Павел Павленко / Андрей Абрикосов / Геннадий Юхтин
    Screenplay by : Иван Пырьев / Фёдор Достоевский
    Production studio : Мосфильм
    ContentType : Short Film
    Description : B фильме поднимаются вопросы o корнях зла и источниках дoбpa, o том, как cooтнocятcя эти начала в душе человека, в мире, в котором он живет.
    Recorded date : 1969-07-01
    Encoded date : UTC 2015-01-12 16:56:15
    Tagged date : UTC 2015-01-12 16:56:52
    Cover : Yes
    Rating : None
    LongDescription : B фильме поднимаются вопросы o корнях зла и источниках дoбpa, o том, как cooтнocятcя эти начала в душе человека, в мире, в котором он живет.
    AppleStoreCatalogID : 46217
    Vendor : Apple:vendor_id:1968-46217
    Video #1
    ID : 1
    Format : AVC
    Format/Info : Advanced Video Codec
    Format profile : Baseline@L3.0
    Format settings, CABAC : No
    Format settings, ReFrames : 3 frames
    Codec ID : avc1
    Codec ID/Info : Advanced Video Coding
    Duration : 1h 17mn
    Bit rate : 1 600 Kbps
    Width : 640 pixels
    Height : 362 pixels
    Display aspect ratio : 2.35:1
    Original display aspect ratio : 2.35:1
    Frame rate mode : Constant
    Frame rate : 25.000 fps
    Color space : YUV
    Chroma subsampling : 4:2:0
    Bit depth : 8 bits
    Scan type : Progressive
    Bits/(Pixel*Frame) : 0.276
    Stream size : 883 MiB (91%)
    Writing library : x264 core 142 r2479 dd79a61
    Encoding settings : cabac=0 / ref=3 / deblock=1:-2:-1 / analyse=0x1:0x111 / me=umh / subme=9 / psy=1 / psy_rd=1.00:0.00 / mixed_ref=1 / me_range=32 / chroma_me=1 / trellis=1 / 8x8dct=0 / cqm=0 / deadzone=21,11 / fast_pskip=1 / chroma_qp_offset=-2 / threads=6 / lookahead_threads=1 / sliced_threads=0 / nr=0 / decimate=1 / interlaced=0 / bluray_compat=0 / constrained_intra=0 / bframes=0 / weightp=0 / keyint=250 / keyint_min=25 / scenecut=40 / intra_refresh=0 / rc_lookahead=40 / rc=2pass / mbtree=1 / bitrate=1600 / ratetol=1.0 / qcomp=0.60 / qpmin=0 / qpmax=69 / qpstep=4 / cplxblur=20.0 / qblur=0.5 / vbv_maxrate=5000 / vbv_bufsize=5000 / nal_hrd=none / filler=0 / ip_ratio=1.40 / aq=1:1.00
    Language : Russian
    Encoded date : UTC 2015-01-12 16:56:15
    Tagged date : UTC 2015-01-12 16:56:50
    Color primaries : BT.601 PAL
    Transfer characteristics : BT.709
    Matrix coefficients : BT.601
    Color range : Limited
    Video #2
    ID : 6
    Format : JPEG
    Codec ID : jpeg
    Duration : 1h 17mn
    Bit rate mode : Variable
    Bit rate : 641 bps
    Width : 640 pixels
    Height : 271 pixels
    Display aspect ratio : 2.35:1
    Frame rate mode : Variable
    Frame rate : 0.002 fps
    Minimum frame rate : 0.001 fps
    Maximum frame rate : 0.004 fps
    Color space : YUV
    Chroma subsampling : 4:2:0
    Bit depth : 8 bits
    Compression mode : Lossy
    Bits/(Pixel*Frame) : 1.848
    Stream size : 391 KiB (0%)
    Language : Russian
    Encoded date : UTC 2015-01-12 16:56:52
    Tagged date : UTC 2015-01-12 16:56:52
    Audio
    ID : 2
    Format : AAC
    Format/Info : Advanced Audio Codec
    Format profile : LC
    Codec ID : 40
    Duration : 1h 17mn
    Bit rate mode : Variable
    Bit rate : 160 Kbps
    Maximum bit rate : 178 Kbps
    Channel(s) : 2 channels
    Channel positions : Front: L R
    Sampling rate : 48.0 KHz
    Compression mode : Lossy
    Stream size : 88.5 MiB (9%)
    Language : Russian
    Encoded date : UTC 2015-01-12 16:56:15
    Tagged date : UTC 2015-01-12 16:56:50
    Text #1
    ID : 3
    Format : Timed Text
    Muxing mode : sbtl
    Codec ID : tx3g
    Duration : 1h 17mn
    Bit rate mode : Variable
    Bit rate : 124 bps
    Stream size : 70.2 KiB (0%)
    Language : Russian
    Encoded date : UTC 2015-01-12 16:56:15
    Tagged date : UTC 2015-01-12 16:56:16
    Text #2
    ID : 4
    Format : Timed Text
    Muxing mode : sbtl
    Codec ID : tx3g
    Duration : 1h 17mn
    Bit rate mode : Variable
    Bit rate : 73 bps
    Stream size : 41.4 KiB (0%)
    Language : English
    Encoded date : UTC 2015-01-12 16:56:15
    Tagged date : UTC 2015-01-12 16:56:16
    Menu #1
    00:00:00.000 : Chapter 1
    00:14:59.501 : Chapter 2
    00:20:00.581 : Chapter 3
    00:28:24.581 : Chapter 4
    00:35:26.021 : Chapter 5
    00:43:59.141 : Chapter 6
    00:50:50.501 : Chapter 7
    00:55:35.141 : Chapter 8
    01:00:56.741 : Chapter 9
    01:06:57.221 : Chapter 10
    Menu #2
    ID : 5
    Codec ID : text
    Duration : 1h 17mn
    Language : Russian
    Encoded date : UTC 2015-01-12 16:56:50
    Tagged date : UTC 2015-01-12 16:56:50
    00:00:00.000 : Chapter 1
    00:14:59.501 : Chapter 2
    00:20:00.581 : Chapter 3
    00:28:24.581 : Chapter 4
    00:35:26.021 : Chapter 5
    00:43:59.141 : Chapter 6
    00:50:50.501 : Chapter 7
    00:55:35.141 : Chapter 8
    01:00:56.741 : Chapter 9
    01:06:57.221 : Chapter 10
    Bit rate mode : VBR

    Скриншоты

    Скачать .torrent

    Скачать торрент-файл бесплатно и на максимальной скорости!

    Как скачивать? · Что такое торрент? · Рейтинг и ограничения

    !ВНИМАНИЕ!
    Сайт не распространяет и не хранит электронные версии произведений, а занимается лишь лишь предоставлением доступа к создаваемому пользователями каталогу ссылок на торрент-файлы, которые содержат только списки хеш-сумм, убедительная просьба с жалобами обращаться напрямую к пользователю. Файлы для обмена на трекере предоставлены пользователями сайта, и администрация не несёт ответственности за их содержание. Просьба не заливать файлы, защищенные авторскими правами, а также файлы нелегального содержания!


    _________________
    [Профиль] [ЛС]
    Показать сообщения:    
    Ответить на тему

    Текущее время: Сегодня, в 02:24

    Часовой пояс: GMT + 2



    Вы не можете начинать темы
    Вы не можете отвечать на сообщения
    Вы не можете редактировать свои сообщения
    Вы не можете удалять свои сообщения
    Вы не можете голосовать в опросах
    Вы не можете прикреплять файлы к сообщениям
    Вы не можете скачивать файлы