BitTorrentTracker PerecTracker.org
BitTorrentTracker PerecTracker.org
    
Регистрация  ·  Вход
 
 · 
Забыли пароль?

  • [iPad] Один дома / Home Alone (Крис Коламбус / Chris Columbus) [1990, комедия, семейный, BDRip, 576p] DUB, 2xMVO, DVO, Original, sub (rus, eng)

    Ответить на тему
     
    Автор Сообщение

    rechyn

    Создавать темы 02-Сен-2015 12:55

           

    [Цитировать]

    Один дома / Home Alone

    Год выпуска: 1990
    Страна: США
    Жанр: комедия, семейный
    Продолжительность: 01:42:54
    Режиссёр: Крис Коламбус
    Продюсеры: Джон Хьюз, Тарквин Готч, Марк Левинсон
    Сценарий: Джон Хьюз
    В ролях: Маколей Калкин, Джо Пеши, Дэниел Стерн, Кэтрин О’Хара, Джон Хёрд, Робертс Блоссом, Джерри Бэммен, Девин Рэтрей, Джон Кэнди, Киран Калкин
    Описание:
    Восьмилетний парнишка Кевин МакКалистер (Макалей Калкин) в одночасье становится главным человеком в доме! Случайно забытый родителями в спешке сборов перед рождественской поездкой, "молодой человек" занимается украшением дома для собственного праздника. Не думайте, что он украшает стены гирляндами и еловыми ветками, он строит хитроумные ловушки для двух незадачливых грабителей, пытающихся ограбить ЕГО дом.
    Исходник: BDRemux
    Контейнер: m4v
    Видео: H.264, 1024x554 (1.85:1), 2227 kbps, 23,976 fps
    Аудио: AAC, 2ch, 160kbps, 48kHz
    Дорожка 1: RUS – Профессиональный (многоголосый закадровый) |R5|
    Дорожка 2: RUS – Профессиональный (двухголосый закадровый) |ОРТ|
    Дорожка 3: RUS – Дублированный
    Дорожка 4: RUS – Профессиональный (многоголосый закадровый) |Family Fan Edition|
    Дорожка 5: ENG – Оригинал
    Субтитры: русские, английские
    Главы: прописаны

    iTunes Meta Tags

    Name: Home Alone
    Artist: Chris Columbus
    Release Date: 1990-11-10T08:00:00Z
    Description: Восьмилетний парнишка Кевин МакКалистер (Макалей Калкин) в одночасье становится главным человеком в доме! Случайно забытый родителями в спешке сборов перед рождественской поездкой
    Long Description: Восьмилетний парнишка Кевин МакКалистер (Макалей Калкин) в одночасье становится главным человеком в доме! Случайно забытый родителями в спешке сборов перед рождественской поездкой, "молодой человек" занимается украшением дома для собственного праздника. Не думайте, что он украшает стены гирляндами и еловыми ветками, он строит хитроумные ловушки для двух незадачливых грабителей, пытающихся ограбить ЕГО дом.
    Cast: Маколей Калкин, Джо Пеши, Дэниел Стерн, Кэтрин О’Хара, Джон Хёрд, Робертс Блоссом, Джерри Бэммен, Девин Рэтрей, Джон Кэнди, Киран Калкин
    Director: Крис Коламбус
    Producers: Джон Хьюз, Тарквин Готч, Марк Левинсон
    Screenwriters: Джон Хьюз
    contentID: 344796733
    XID: Apple:vendor_id:1990-8124

    x264 log

    x264 [info]: frame I:1279 Avg QP:15.01 size:101742
    x264 [info]: frame P:28297 Avg QP:17.73 size: 26928
    x264 [info]: frame B:118456 Avg QP:20.69 size: 6977
    x264 [info]: consecutive B-frames: 1.3% 1.0% 4.5% 12.7% 15.0% 54.2% 6.2% 1.9% 1.5% 0.6% 0.5% 0.8%
    x264 [info]: mb I I16..4: 4.5% 82.1% 13.4%
    x264 [info]: mb P I16..4: 1.0% 8.0% 1.1% P16..4: 41.0% 27.3% 15.2% 0.0% 0.0% skip: 6.4%
    x264 [info]: mb B I16..4: 0.1% 0.5% 0.1% B16..8: 43.4% 8.8% 2.2% direct: 4.7% skip:40.4% L0:45.0% L1:46.2% BI: 8.8%
    x264 [info]: 8x8 transform intra:80.3% inter:61.4%
    x264 [info]: coded y,uvDC,uvAC intra: 90.0% 83.7% 54.4% inter: 23.2% 22.0% 1.4%
    x264 [info]: i16 v,h,dc,p: 51% 12% 5% 33%
    x264 [info]: i8 v,h,dc,ddl,ddr,vr,hd,vl,hu: 11% 9% 5% 10% 15% 14% 13% 12% 12%
    x264 [info]: i4 v,h,dc,ddl,ddr,vr,hd,vl,hu: 11% 7% 3% 10% 16% 16% 14% 12% 12%
    x264 [info]: i8c dc,h,v,p: 37% 25% 21% 18%
    x264 [info]: Weighted P-Frames: Y:5.7% UV:2.8%
    x264 [info]: ref P L0: 43.2% 11.6% 19.5% 6.6% 6.3% 4.0% 4.1% 2.1% 2.4% 0.2% 0.0%
    x264 [info]: ref B L0: 74.2% 11.9% 5.5% 3.0% 2.1% 1.8% 1.0% 0.4%
    x264 [info]: ref B L1: 93.3% 6.7%
    x264 [info]: kb/s:2226.86

    MediaInfo

    General
    Format : MPEG-4
    Codec ID : M4V
    File size : 2.19 GiB
    Duration : 1h 42mn
    Overall bit rate mode : Variable
    Overall bit rate : 3 046 Kbps
    Movie name : Home Alone
    Performer : Chris Columbus
    Director : Крис Коламбус
    Actor : Маколей Калкин / Джо Пеши / Дэниел Стерн / Кэтрин О’Хара / Джон Хёрд / Робертс Блоссом / Джерри Бэммен / Девин Рэтрей / Джон Кэнди / Киран Калкин
    Screenplay by : Джон Хьюз
    Producer : Джон Хьюз / Тарквин Готч / Марк Левинсон
    Genre : Comedy
    ContentType : Short Film
    Description : Восьмилетний парнишка Кевин МакКалистер (Макалей Калкин) в одночасье становится главным человеком в доме! Случайно забытый родителями в спешке сборов перед рождественской поездкой
    Recorded date : 1990-11-10
    Encoded date : UTC 2015-01-20 08:53:34
    Tagged date : UTC 2015-01-20 10:25:57
    Copyright : © 1990 Twentieth Century Fox Film Corporation
    Cover : Yes
    Rating : None
    LongDescription : Восьмилетний парнишка Кевин МакКалистер (Макалей Калкин) в одночасье становится главным человеком в доме! Случайно забытый родителями в спешке сборов перед рождественской поездкой, "молодой человек" занимается украшением дома для собственного праздника. Не думайте, что он украшает стены гирляндами и еловыми ветками, он строит хитроумные ловушки для двух незадачливых грабителей, пытающихся ограбить ЕГО дом.
    AppleStoreCountry : Unknown Country
    AppleStoreCatalogID : 344796733
    Vendor : Apple:vendor_id:1990-8124
    Video #1
    ID : 1
    Format : AVC
    Format/Info : Advanced Video Codec
    Format profile : High@L4.1
    Format settings, CABAC : Yes
    Format settings, ReFrames : 9 frames
    Codec ID : avc1
    Codec ID/Info : Advanced Video Coding
    Duration : 1h 42mn
    Bit rate : 2 227 Kbps
    Width : 1 024 pixels
    Height : 554 pixels
    Display aspect ratio : 1.85:1
    Frame rate mode : Variable
    Frame rate : 23.976 fps
    Minimum frame rate : 23.810 fps
    Maximum frame rate : 24.390 fps
    Color space : YUV
    Chroma subsampling : 4:2:0
    Bit depth : 8 bits
    Scan type : Progressive
    Bits/(Pixel*Frame) : 0.164
    Stream size : 1.60 GiB (73%)
    Writing library : x264 core 142 r2479 dd79a61
    Encoding settings : cabac=1 / ref=9 / deblock=1:-2:-1 / analyse=0x3:0x113 / me=esa / subme=9 / psy=1 / psy_rd=1.00:0.00 / mixed_ref=1 / me_range=32 / chroma_me=1 / trellis=2 / 8x8dct=1 / cqm=0 / deadzone=21,11 / fast_pskip=1 / chroma_qp_offset=-2 / threads=6 / lookahead_threads=1 / sliced_threads=0 / nr=0 / decimate=1 / interlaced=0 / bluray_compat=0 / constrained_intra=0 / bframes=11 / b_pyramid=2 / b_adapt=2 / b_bias=0 / direct=1 / weightb=1 / open_gop=0 / weightp=2 / keyint=240 / keyint_min=24 / scenecut=40 / intra_refresh=0 / rc_lookahead=30 / rc=crf / mbtree=1 / crf=18.0 / qcomp=0.60 / qpmin=0 / qpmax=69 / qpstep=4 / vbv_maxrate=62500 / vbv_bufsize=78125 / crf_max=0.0 / nal_hrd=none / filler=0 / ip_ratio=1.40 / aq=1:1.00
    Language : English
    Encoded date : UTC 2015-01-20 08:53:34
    Tagged date : UTC 2015-01-20 08:55:21
    Color primaries : BT.709
    Transfer characteristics : BT.709
    Matrix coefficients : BT.709
    Color range : Limited
    Video #2
    ID : 12
    Format : JPEG
    Codec ID : jpeg
    Duration : 1h 42mn
    Bit rate mode : Variable
    Bit rate : 1 543 bps
    Width : 640 pixels
    Height : 346 pixels
    Display aspect ratio : 1.85:1
    Frame rate mode : Variable
    Frame rate : 0.004 fps
    Minimum frame rate : 0.002 fps
    Maximum frame rate : 0.015 fps
    Color space : YUV
    Chroma subsampling : 4:2:0
    Bit depth : 8 bits
    Compression mode : Lossy
    Bits/(Pixel*Frame) : 1.742
    Stream size : 1.10 MiB (0%)
    Language : English
    Encoded date : UTC 2015-01-20 08:55:35
    Tagged date : UTC 2015-01-20 08:55:35
    Audio #1
    ID : 2
    Format : AAC
    Format/Info : Advanced Audio Codec
    Format profile : LC
    Codec ID : 40
    Duration : 1h 42mn
    Source duration : 1h 42mn
    Bit rate mode : Constant
    Nominal bit rate : 160 Kbps
    Channel(s) : 2 channels
    Channel positions : Front: L R
    Sampling rate : 48.0 KHz
    Compression mode : Lossy
    Source stream size : 118 MiB (5%)
    Title : MVO R5
    Language : Russian
    Encoded date : UTC 2015-01-20 08:53:34
    Tagged date : UTC 2015-01-20 08:55:21
    Audio #2
    ID : 3
    Format : AAC
    Format/Info : Advanced Audio Codec
    Format profile : LC
    Codec ID : 40
    Duration : 1h 42mn
    Source duration : 1h 42mn
    Bit rate mode : Variable
    Nominal bit rate : 160 Kbps
    Maximum bit rate : 198 Kbps
    Channel(s) : 2 channels
    Channel positions : Front: L R
    Sampling rate : 48.0 KHz
    Compression mode : Lossy
    Source stream size : 118 MiB (5%)
    Title : DVO OPT
    Language : Russian
    Encoded date : UTC 2015-01-20 08:53:34
    Tagged date : UTC 2015-01-20 08:55:21
    Audio #3
    ID : 4
    Format : AAC
    Format/Info : Advanced Audio Codec
    Format profile : LC
    Codec ID : 40
    Duration : 1h 42mn
    Source duration : 1h 42mn
    Bit rate mode : Constant
    Nominal bit rate : 160 Kbps
    Channel(s) : 2 channels
    Channel positions : Front: L R
    Sampling rate : 48.0 KHz
    Compression mode : Lossy
    Source stream size : 118 MiB (5%)
    Title : DUB
    Language : Russian
    Encoded date : UTC 2015-01-20 08:53:34
    Tagged date : UTC 2015-01-20 08:55:21
    Audio #4
    ID : 5
    Format : AAC
    Format/Info : Advanced Audio Codec
    Format profile : LC
    Codec ID : 40
    Duration : 1h 42mn
    Source duration : 1h 42mn
    Bit rate mode : Variable
    Nominal bit rate : 160 Kbps
    Maximum bit rate : 162 Kbps
    Channel(s) : 2 channels
    Channel positions : Front: L R
    Sampling rate : 48.0 KHz
    Compression mode : Lossy
    Source stream size : 118 MiB (5%)
    Title : MVO Family Fan Edition
    Language : Russian
    Encoded date : UTC 2015-01-20 08:53:34
    Tagged date : UTC 2015-01-20 08:55:21
    Audio #5
    ID : 6
    Format : AAC
    Format/Info : Advanced Audio Codec
    Format profile : LC
    Codec ID : 40
    Duration : 1h 42mn
    Source duration : 1h 42mn
    Bit rate mode : Variable
    Nominal bit rate : 160 Kbps
    Maximum bit rate : 191 Kbps
    Channel(s) : 2 channels
    Channel positions : Front: L R
    Sampling rate : 48.0 KHz
    Compression mode : Lossy
    Source stream size : 118 MiB (5%)
    Title : Original
    Language : English
    Encoded date : UTC 2015-01-20 08:53:34
    Tagged date : UTC 2015-01-20 08:55:21
    Text #1
    ID : 7
    Format : Timed Text
    Muxing mode : sbtl
    Codec ID : tx3g
    Duration : 1h 38mn
    Bit rate mode : Variable
    Bit rate : 89 bps
    Stream size : 64.4 KiB (0%)
    Title : Russian #1
    Language : Russian
    Encoded date : UTC 2015-01-20 08:53:34
    Tagged date : UTC 2015-01-20 08:55:21
    Text #2
    ID : 8
    Format : Timed Text
    Muxing mode : sbtl
    Codec ID : tx3g
    Duration : 1h 38mn
    Bit rate mode : Variable
    Bit rate : 86 bps
    Stream size : 62.5 KiB (0%)
    Title : Russian #2
    Language : Russian
    Encoded date : UTC 2015-01-20 08:53:34
    Tagged date : UTC 2015-01-20 08:55:21
    Text #3
    ID : 9
    Format : Timed Text
    Muxing mode : sbtl
    Codec ID : tx3g
    Duration : 1h 38mn
    Bit rate mode : Variable
    Bit rate : 86 bps
    Stream size : 62.5 KiB (0%)
    Title : Russian #3
    Language : Russian
    Encoded date : UTC 2015-01-20 08:53:34
    Tagged date : UTC 2015-01-20 08:55:21
    Text #4
    ID : 10
    Format : Timed Text
    Muxing mode : sbtl
    Codec ID : tx3g
    Duration : 1h 39mn
    Bit rate mode : Variable
    Bit rate : 53 bps
    Stream size : 38.8 KiB (0%)
    Title : Original
    Language : English
    Encoded date : UTC 2015-01-20 08:53:34
    Tagged date : UTC 2015-01-20 08:55:21
    Menu #1
    00:00:00.000 : Chapter 1
    00:03:47.227 : Chapter 2
    00:05:46.805 : Chapter 3
    00:08:49.404 : Chapter 4
    00:11:28.855 : Chapter 5
    00:13:43.448 : Chapter 6
    00:19:27.583 : Chapter 7
    00:25:08.298 : Chapter 8
    00:31:16.166 : Chapter 9
    00:35:56.780 : Chapter 10
    00:41:09.801 : Chapter 11
    00:51:22.788 : Chapter 12
    00:57:38.789 : Chapter 13
    01:03:27.846 : Chapter 14
    01:06:33.781 : Chapter 15
    01:13:44.045 : Chapter 16
    01:15:13.426 : Chapter 17
    01:19:27.179 : Chapter 18
    01:22:51.592 : Chapter 19
    01:26:00.197 : Chapter 20
    01:28:45.195 : Chapter 21
    01:33:32.357 : Chapter 22
    01:37:58.498 : Chapter 23
    01:39:06.274 : Chapter 24
    Menu #2
    ID : 11
    Codec ID : text
    Duration : 1h 42mn
    Language : English
    Encoded date : UTC 2015-01-20 08:55:22
    Tagged date : UTC 2015-01-20 08:55:22
    00:00:00.000 : Chapter 1
    00:03:47.227 : Chapter 2
    00:05:46.805 : Chapter 3
    00:08:49.404 : Chapter 4
    00:11:28.855 : Chapter 5
    00:13:43.448 : Chapter 6
    00:19:27.583 : Chapter 7
    00:25:08.298 : Chapter 8
    00:31:16.166 : Chapter 9
    00:35:56.780 : Chapter 10
    00:41:09.801 : Chapter 11
    00:51:22.788 : Chapter 12
    00:57:38.789 : Chapter 13
    01:03:27.846 : Chapter 14
    01:06:33.781 : Chapter 15
    01:13:44.045 : Chapter 16
    01:15:13.426 : Chapter 17
    01:19:27.179 : Chapter 18
    01:22:51.592 : Chapter 19
    01:26:00.197 : Chapter 20
    01:28:45.195 : Chapter 21
    01:33:32.357 : Chapter 22
    01:37:58.498 : Chapter 23
    01:39:06.274 : Chapter 24
    Bit rate mode : VBR

    Скриншоты

    Скачать .torrent

    Скачать торрент-файл бесплатно и на максимальной скорости!

    Как скачивать? · Что такое торрент? · Рейтинг и ограничения

    !ВНИМАНИЕ!
    Сайт не распространяет и не хранит электронные версии произведений, а занимается лишь лишь предоставлением доступа к создаваемому пользователями каталогу ссылок на торрент-файлы, которые содержат только списки хеш-сумм, убедительная просьба с жалобами обращаться напрямую к пользователю. Файлы для обмена на трекере предоставлены пользователями сайта, и администрация не несёт ответственности за их содержание. Просьба не заливать файлы, защищенные авторскими правами, а также файлы нелегального содержания!


    _________________
    [Профиль] [ЛС]
    Показать сообщения:    
    Ответить на тему

    Текущее время: Сегодня, в 22:09

    Часовой пояс: GMT + 2



    Вы не можете начинать темы
    Вы не можете отвечать на сообщения
    Вы не можете редактировать свои сообщения
    Вы не можете удалять свои сообщения
    Вы не можете голосовать в опросах
    Вы не можете прикреплять файлы к сообщениям
    Вы не можете скачивать файлы