BitTorrentTracker PerecTracker.org
BitTorrentTracker PerecTracker.org
    
Регистрация  ·  Вход
 
 · 
Забыли пароль?

  • [iPad] Славные ублюдки / Les salauds (Клер Дени / Claire Denis ) [2013, Франция, Германия, Драма, HDRip, SD (576p)] MVO + Original + sub (rus, eng)

    Ответить на тему
     
    Автор Сообщение

    rechyn

    Создавать темы 02-Сен-2015 12:55

           

    [Цитировать]

    Славные ублюдки / Les salauds
    -
    5.368 / 10 6.20 / 10
    -Год выпуска: 2013
    Страна: Франция, Германия
    Жанр: Драма
    Продолжительность: 01:40:24
    Перевод: Многоголосый закадровый (Online movies)
    Оригинальная аудиодорожка: Есть
    Cубтитры: Русские, Английские
    Режиссёр: Клер Дени
    Сценарий: Жан-Поль Фаржо, Клер Дени
    Продюсер: Брагим Шиуа, Лоуренс Клерк, Оливье Тери-Лапине
    Оператор: Аньес Годар
    Композитор: Стюарт Стэйплс
    Художник: Мишель Бартелеми, Джуди Шресбери, Клер Весс
    Монтаж: Аннетт Дютертри
    В ролях: Венсан Линдон, Кьяра Мастроянни, Джули Батай, Мишель Сюбор, Лола Кретон, Алекс Дека, Грегуар Колен, Флоранс Луаре, Кристоф Миоссек, Элен Фийер
    Сборы в США: $24 525
    Сборы в России: $17 180
    Мировая премьера: 21 мая 2013
    Премьера (РФ): 31 октября 2013, «Русский Репортаж»
    Описание: Племянница Марко Сильвестри насильно отправлена в психиатрическую лечебницу, его бизнес уничтожен, сестра Сандра в полном отчаянии. В том, что случилось с их семьей, Сандра обвиняет известного дельца Эдуарда Лапорта. Марко намерен нанести ответный удар — он отправляется к любовнице Лапорта Рафаэль…-Качество исходника: BDRip 1080p
    Качество: HDRip
    Тип: SD (576p)
    Контейнер: M4V
    Видео: H.264, 1024x560, 1.85:1, 2 200 Kbps, 23.976 fps
    Аудио 1: Русский/Многоголосый закадровый (Online movies), AAC / 2.0 / 132 Kbps / 48.0 KHz
    Аудио 2: Французский/Оригинальная дорожка , AAC / 2.0 / 115 Kbps / 48.0 KHz
    Субтитры 1: Русские полные
    Субтитры 2: Английские полные
    -

    iTunes Meta Tags

    Media Type: Movie
    Sort Name: Les salauds
    XID: Apple:vendor_id:2013-757978
    Content ID: 778602224
    ScreenWriters: Жан-Поль Фаржо, Клер Дени
    Producers: Брагим Шиуа, Лоуренс Клерк, Оливье Тери-Лапине
    Director: Клер Дени
    Cast: Венсан Линдон, Кьяра Мастроянни, Джули Батай, Мишель Сюбор, Лола Кретон, Алекс Дека, Грегуар Колен, Флоранс Луаре, Кристоф Миоссек, Элен Фийер
    Rating: -12
    Long Description: Племянница Марко Сильвестри насильно отправлена в психиатрическую лечебницу, его бизнес уничтожен, сестра Сандра в полном отчаянии. В том, что случилось с их семьей, Сандра обвиняет известного дельца Эдуарда Лапорта. Марко намерен нанести ответный удар - он отправляется к любовнице Лапорта Рафаэль...
    Description: Племянница Марко Сильвестри насильно отправлена в психиатрическую лечебницу, его бизнес уничтожен, сестра Сандра в полном отчаянии.
    Release Date: 2013-05-21T08:00:00Z
    Genre: Drama
    Artist: Claire Denis
    Name: Les salauds

    MediaInfo

    General
    Complete name                            : C:\\Handbrake\\Bastards.(SD).(pk).m4v
    Format                                   : MPEG-4
    Codec ID                                 : M4V
    File size                                : 1.72 GiB
    Duration                                 : 1h 40mn
    Overall bit rate mode                    : Variable
    Overall bit rate                         : 2 452 Kbps
    Movie name                               : Les salauds
    Performer                                : Claire Denis
    Director                                 : Клер Дени
    Actor                                    : Венсан Линдон / Кьяра Мастроянни / Джули Батай / Мишель Сюбор / Лола Кретон / Алекс Дека / Грегуар Колен / Флоранс Луаре / Кристоф Миоссек / Элен Фийер
    Screenplay by                            : Жан-Поль Фаржо / Клер Дени
    Producer                                 : Брагим Шиуа / Лоуренс Клерк / Оливье Тери-Лапине
    Genre                                    : Drama
    ContentType                              : Short Film
    Description                              : Племянница Марко Сильвестри насильно отправлена в психиатрическую лечебницу, его бизнес уничтожен, сестра Сандра в полном отчаянии.
    Recorded date                            : UTC 2013-05-21 08:00:00
    Encoded date                             : UTC 2015-01-24 20:29:45
    Tagged date                     ф         : UTC 2015-01-24 20:30:37
    Writing application                      : MkvToMp4 [www.mkvtomp4.ru] version 0.222
    Service name                             : AOL
    Cover                                    : Yes
    Title/Sort                               : Les salauds
    LongDescription                          : Племянница Марко Сильвестри насильно отправлена в психиатрическую лечебницу, его бизнес уничтожен, сестра Сандра в полном отчаянии. В том, что случилось с их семьей, Сандра обвиняет известного дельца Эдуарда Лапорта. Марко намерен нанести ответный удар - он отправляется к любовнице Лапорта Рафаэль...
    AppleStoreAccountType                    : AOL
    AppleStoreCountry                        : Unknown Country
    AppleStoreCatalogID                      : 778602224
    Vendor                                   : Apple:vendor_id:2013-757978
    ContentRating                            : fr-movie|-12|300|
    Video
    ID                                       : 1
    Format                                   : AVC
    Format/Info                              : Advanced Video Codec
    Format profile                           : High@L3.2
    Format settings, CABAC                   : Yes
    Format settings, ReFrames                : 9 frames
    Codec ID                                 : avc1
    Codec ID/Info                            : Advanced Video Coding
    Duration                                 : 1h 40mn
    Bit rate                                 : 2 200 Kbps
    Maximum bit rate                         : 11.1 Mbps
    Width                                    : 1 024 pixels
    Height                                   : 560 pixels
    Display aspect ratio                     : 1.85:1
    Frame rate mode                          : Variable
    Frame rate                               : 23.976 fps
    Minimum frame rate                       : 4.798 fps
    Maximum frame rate                       : 24.319 fps
    Color space                              : YUV
    Chroma subsampling                       : 4:2:0
    Bit depth                                : 8 bits
    Scan type                                : Progressive
    Bits/(Pixel*Frame)                       : 0.160
    Stream size                              : 1.54 GiB (90%)
    Writing library                          : x264 core 142 r2479 dd79a61
    Encoding settings                        : cabac=1 / ref=9 / deblock=1:0:0 / analyse=0x3:0x113 / me=umh / subme=9 / psy=1 / psy_rd=1.00:0.00 / mixed_ref=1 / me_range=32 / chroma_me=1 / trellis=1 / 8x8dct=1 / cqm=0 / deadzone=21,11 / fast_pskip=1 / chroma_qp_offset=-2 / threads=12 / lookahead_threads=1 / sliced_threads=0 / nr=0 / decimate=1 / interlaced=0 / bluray_compat=0 / constrained_intra=0 / bframes=6 / b_pyramid=2 / b_adapt=2 / b_bias=0 / direct=1 / weightb=1 / open_gop=0 / weightp=2 / keyint=240 / keyint_min=24 / scenecut=40 / intra_refresh=0 / rc_lookahead=40 / rc=2pass / mbtree=1 / bitrate=2200 / ratetol=1.0 / qcomp=0.60 / qpmin=0 / qpmax=69 / qpstep=4 / cplxblur=20.0 / qblur=0.5 / ip_ratio=1.40 / aq=1:1.00
    Language                                 : English
    Encoded date                             : UTC 2015-01-24 20:29:45
    Tagged date                              : UTC 2015-01-24 20:30:14
    Color primaries                          : BT.709
    Transfer characteristics                 : BT.709
    Matrix coefficients                      : BT.709
    Color range                              : Limited
    Audio #1
    ID                                       : 2
    Format                                   : AAC
    Format/Info                              : Advanced Audio Codec
    Format profile                           : LC
    Codec ID                                 : 40
    Duration                                 : 1h 39mn
    Bit rate mode                            : Variable
    Bit rate                                 : 132 Kbps
    Maximum bit rate                         : 185 Kbps
    Channel(s)                               : 2 channels
    Channel positions                        : Front: L R
    Sampling rate                            : 48.0 KHz
    Compression mode                         : Lossy
    Stream size                              : 92.8 MiB (5%)
    Title                                    : Stereo / Stereo
    Language                                 : Russian
    Encoded date                             : UTC 2015-01-24 20:30:04
    Tagged date                              : UTC 2015-01-24 20:30:14
    Audio #2
    ID                                       : 3
    Format                                   : AAC
    Format/Info                              : Advanced Audio Codec
    Format profile                           : LC
    Codec ID                                 : 40
    Duration                                 : 1h 39mn
    Bit rate mode                            : Variable
    Bit rate                                 : 115 Kbps
    Maximum bit rate                         : 172 Kbps
    Channel(s)                               : 2 channels
    Channel positions                        : Front: L R
    Sampling rate                            : 48.0 KHz
    Compression mode                         : Lossy
    Stream size                              : 82.1 MiB (5%)
    Title                                    : Stereo / Stereo
    Language                                 : French
    Encoded date                             : UTC 2015-01-24 20:30:12
    Tagged date                              : UTC 2015-01-24 20:30:14
    Text #1
    ID                                       : 4
    Format                                   : Timed Text
    Muxing mode                              : sbtl
    Codec ID                                 : tx3g
    Duration                                 : 1h 32mn
    Bit rate mode                            : Variable
    Bit rate                                 : 38 bps
    Stream size                              : 25.6 KiB (0%)
    Language                                 : Russian
    Encoded date                             : UTC 2015-01-24 20:30:14
    Tagged date                              : UTC 2015-01-24 20:30:14
    Text #2
    ID                                       : 5
    Format                                   : Timed Text
    Muxing mode                              : sbtl
    Codec ID                                 : tx3g
    Duration                                 : 1h 32mn
    Bit rate mode                            : Variable
    Bit rate                                 : 26 bps
    Stream size                              : 17.5 KiB (0%)
    Language                                 : English
    Encoded date                             : UTC 2015-01-24 20:30:14
    Tagged date                              : UTC 2015-01-24 20:30:14
    Menu
    ID                                       : 6
    Codec ID                                 : text
    Duration                                 : 1h 40mn
    Encoded date                             : UTC 2015-01-24 20:30:33
    Tagged date                              : UTC 2015-01-24 20:30:33
    Bit rate mode                            : CBR
    00:00:00.000                             : 00:00:00.000
    00:08:29.884                             : 00:08:29.792
    00:18:59.388                             : 00:18:59.292
    00:27:35.445                             : 00:27:35.333
    00:34:43.915                             : 00:34:43.792
    00:41:08.883                             : 00:41:08.667
    00:50:22.353                             : 00:50:22.250
    00:59:56.259                             : 00:59:56.167
    01:09:32.835                             : 01:09:32.708
    01:16:49.355                             : 01:16:49.250
    01:24:07.584                             : 01:24:07.417
    01:31:25.522                             : 01:31:25.333

    x264 лог

    x264 [info]: frame I:827   Avg QP:10.79  size: 74644
    x264 [info]: frame P:34908 Avg QP:13.88  size: 23058
    x264 [info]: frame B:108392 Avg QP:15.86  size:  7248
    x264 [info]: consecutive B-frames:  2.6%  3.4% 11.1% 32.8% 13.3% 29.3%  7.6%
    x264 [info]: mb I  I16..4: 14.7% 67.0% 18.3%
    x264 [info]: mb P  I16..4:  2.6%  9.6%  2.0%  P16..4: 34.2% 25.0% 14.8%  0.0%  0.0%    skip:12.0%
    x264 [info]: mb B  I16..4:  0.2%  1.0%  0.2%  B16..8: 36.3% 12.5%  3.0%  direct: 4.2%  skip:42.5%  L0:45.8% L1:46.5% BI: 7.8%
    x264 [info]: 8x8 transform intra:68.0% inter:70.3%
    x264 [info]: coded y,uvDC,uvAC intra: 76.2% 73.3% 48.5% inter: 24.7% 20.2% 2.8%
    x264 [info]: i16 v,h,dc,p: 51% 13%  6% 30%
    x264 [info]: i8 v,h,dc,ddl,ddr,vr,hd,vl,hu: 10%  9%  9%  9% 13% 12% 12% 13% 13%
    x264 [info]: i4 v,h,dc,ddl,ddr,vr,hd,vl,hu: 10%  9%  5%  9% 15% 14% 14% 12% 13%
    x264 [info]: i8c dc,h,v,p: 46% 25% 18% 11%
    x264 [info]: Weighted P-Frames: Y:4.6% UV:2.6%
    x264 [info]: ref P L0: 50.3%  7.2% 16.9%  7.2%  5.6%  4.3%  3.7%  2.3%  2.2%  0.4%  0.0%
    x264 [info]: ref B L0: 69.4% 13.4%  6.8%  3.5%  2.7%  2.3%  1.4%  0.5%
    x264 [info]: ref B L1: 91.1%  8.9%
    x264 [info]: kb/s:2198.87

    Скриншоты

    -

    Релиз подготовлен для просмотра на Apple TV, iPad, iPhone, iPod Touch.
    Для просмотра данного релиза на компьютере с ОС Windows рекомендуется использовать VLC media player
    Скачать .torrent

    Скачать торрент-файл бесплатно и на максимальной скорости!

    Как скачивать? · Что такое торрент? · Рейтинг и ограничения

    !ВНИМАНИЕ!
    Сайт не распространяет и не хранит электронные версии произведений, а занимается лишь лишь предоставлением доступа к создаваемому пользователями каталогу ссылок на торрент-файлы, которые содержат только списки хеш-сумм, убедительная просьба с жалобами обращаться напрямую к пользователю. Файлы для обмена на трекере предоставлены пользователями сайта, и администрация не несёт ответственности за их содержание. Просьба не заливать файлы, защищенные авторскими правами, а также файлы нелегального содержания!


    _________________
    [Профиль] [ЛС]
    Показать сообщения:    
    Ответить на тему

    Текущее время: Сегодня, в 18:04

    Часовой пояс: GMT + 2



    Вы не можете начинать темы
    Вы не можете отвечать на сообщения
    Вы не можете редактировать свои сообщения
    Вы не можете удалять свои сообщения
    Вы не можете голосовать в опросах
    Вы не можете прикреплять файлы к сообщениям
    Вы не можете скачивать файлы