BitTorrentTracker PerecTracker.org
BitTorrentTracker PerecTracker.org
    
Регистрация  ·  Вход
 
 · 
Забыли пароль?

  • [iPad] Зорро / Zorro (Дуччо Тессари / Duccio Tessari) [1975, приключения, комедия, BDRip, 576p] DUB, MVO, Original

    Ответить на тему
     
    Автор Сообщение

    rechyn

    Создавать темы 02-Сен-2015 12:55

           

    [Цитировать]

    Зорро / Zorro

    Год выпуска: 1975
    Страна: Италия, Франция
    Жанр: приключения, комедия
    Продолжительность: 01:59:19
    Режиссёр: Дуччо Тессари
    Продюсер: Лучано Мартино
    Сценарий: Джорджо Арлорио
    В ролях: Ален Делон, Оттавия Пикколо, Энцо Черузико, Мусташ, Джакомо Росси-Стюарт, Джампьеро Альбертини, Марино Мазе, Райка Юрий, Адриана Асти, Стенли Бейкер
    Описание:
    Действие фильма происходит в одной из южноамериканских провинций. На глазах у испанца Диэго трое наёмных убийц убивают его давнего друга Мигеля, который должен был стать губернатором города Нуэва Арагона. Диэго обещает истекающему кровью Мигелю, что он отомстит за его смерть. Но умирающий христианин Мигель просит Диэго (лучшего фехтовальщика Старого Света) дать клятву, что он не будет мстить за него путём насилия.
    Заручившись поддержкой губернаторского перстня и вверительной грамоты герой приезжает в Нуэва Арагону и изображая бестолкового и флегматичного губернатора обнаруживает, что власть в этой испанской колонии узурпирована жестоким полковником Уэртой, по тайному приказу которого и был убит его лучший друг. Чтобы обуздать тиранию Уэрты и его армии герой начинает противостоять творящемуся произволу полковника с помощью двойной игры.
    Облачившись в чёрный плащ, шляпу и маску он превращается в неуловимого Зорро, устраивающего погрязшим в роскоши, нечестным богатеям и солдатам Уэрты "партизанские" вылазки на площадях, базарах и каторгах Нуэва Арагоны.
    Исходник: BDRemux [HDClub]
    Контейнер: m4v
    Видео: H.264, 1024x554 (1.85:1), 2898 kbps, 23,976 fps
    Аудио: AAC, 2ch, 160kbps, 48kHz
    Дорожка 1: RUS – Дублированный
    Дорожка 2: RUS – Профессиональный (многоголосый закадровый)
    Дорожка 5: ENG – Оригинал
    Главы: прописаны

    iTunes Meta Tags

    Name: Zorro
    Artist: Duccio Tessari
    Release Date: 1975-03-06T08:00:00Z
    Description: Действие фильма происходит в одной из южноамериканских провинций. На глазах у испанца Диэго трое наёмных убийц убивают его давнего друга Мигеля, который должен был стать губернатором города Нуэва Арагона.
    Long Description: Действие фильма происходит в одной из южноамериканских провинций. На глазах у испанца Диэго трое наёмных убийц убивают его давнего друга Мигеля, который должен был стать губернатором города Нуэва Арагона. Диэго обещает истекающему кровью Мигелю, что он отомстит за его смерть. Но умирающий христианин Мигель просит Диэго (лучшего фехтовальщика Старого Света) дать клятву, что он не будет мстить за него путём насилия.
    Заручившись поддержкой губернаторского перстня и вверительной грамоты герой приезжает в Нуэва Арагону и изображая бестолкового и флегматичного губернатора обнаруживает, что власть в этой испанской колонии узурпирована жестоким полковником Уэртой, по тайному приказу которого и был убит его лучший друг. Чтобы обуздать тиранию Уэрты и его армии герой начинает противостоять творящемуся произволу полковника с помощью двойной игры.
    Облачившись в чёрный плащ, шляпу и маску он превращается в неуловимого Зорро, устраивающего погрязшим в роскоши, нечестным богатеям и солдатам Уэрты "партизанские" вылазки на площадях, базарах и каторгах Нуэва Арагоны.
    Cast: Ален Делон, Оттавия Пикколо, Энцо Черузико, Мусташ, Джакомо Росси-Стюарт, Джампьеро Альбертини, Марино Мазе, Райка Юрий, Адриана Асти, Стенли Бейкер
    Director: Дуччо Тессари
    Producers: Лучано Мартино
    Screenwriters: Джорджо Арлорио
    contentID: 735197174
    XID: Apple:vendor_id:1975-101095

    x264 log

    x264 [info]: frame I:1407 Avg QP:15.14 size: 75580
    x264 [info]: frame P:35858 Avg QP:18.51 size: 26671
    x264 [info]: frame B:132934 Avg QP:20.60 size: 11350
    x264 [info]: consecutive B-frames: 1.6% 2.2% 6.9% 24.2% 18.8% 29.1% 8.8% 4.7% 1.6% 0.9% 0.5% 0.7%
    x264 [info]: mb I I16..4: 3.0% 84.5% 12.6%
    x264 [info]: mb P I16..4: 1.5% 16.0% 1.6% P16..4: 40.2% 25.4% 12.6% 0.0% 0.0% skip: 2.8%
    x264 [info]: mb B I16..4: 0.1% 1.7% 0.2% B16..8: 41.6% 15.0% 3.7% direct:10.9% skip:26.8% L0:44.7% L1:45.3% BI:10.0%
    x264 [info]: 8x8 transform intra:85.1% inter:70.8%
    x264 [info]: coded y,uvDC,uvAC intra: 89.0% 85.0% 55.3% inter: 39.9% 33.0% 3.2%
    x264 [info]: i16 v,h,dc,p: 26% 14% 10% 50%
    x264 [info]: i8 v,h,dc,ddl,ddr,vr,hd,vl,hu: 10% 8% 4% 9% 14% 14% 15% 12% 14%
    x264 [info]: i4 v,h,dc,ddl,ddr,vr,hd,vl,hu: 9% 6% 2% 9% 16% 16% 16% 12% 13%
    x264 [info]: i8c dc,h,v,p: 40% 24% 18% 17%
    x264 [info]: Weighted P-Frames: Y:24.2% UV:11.4%
    x264 [info]: ref P L0: 41.9% 10.8% 16.2% 8.5% 6.4% 5.2% 4.4% 2.9% 2.7% 1.0% 0.0%
    x264 [info]: ref B L0: 71.9% 12.8% 6.0% 3.2% 2.4% 2.1% 1.2% 0.5%
    x264 [info]: ref B L1: 92.3% 7.7%
    x264 [info]: kb/s:2898.06

    MediaInfo

    General
    Format : MPEG-4
    Format profile : Base Media / Version 2
    Codec ID : mp42
    File size : 2.80 GiB
    Duration : 1h 58mn
    Overall bit rate mode : Variable
    Overall bit rate : 3 394 Kbps
    Movie name : Zorro
    Performer : Duccio Tessari
    Director : Дуччо Тессари
    Actor : Ален Делон / Оттавия Пикколо / Энцо Черузико / Мусташ / Джакомо Росси-Стюарт / Джампьеро Альбертини / Марино Мазе / Райка Юрий / Адриана Асти / Стенли Бейкер
    Screenplay by : Джорджо Арлорио
    Producer : Лучано Мартино
    ContentType : Short Film
    Description : Действие фильма происходит в одной из южноамериканских провинций. На глазах у испанца Диэго трое наёмных убийц убивают его давнего друга Мигеля, который должен был стать губернатором города Нуэва Арагона.
    Recorded date : 1975-03-06
    Encoded date : UTC 1904-01-01 00:00:00
    Tagged date : UTC 2015-01-25 06:09:37
    Cover : Yes
    Rating : None
    LongDescription : Действие фильма происходит в одной из южноамериканских провинций. На глазах у испанца Диэго трое наёмных убийц убивают его давнего друга Мигеля, который должен был стать губернатором города Нуэва Арагона. Диэго обещает истекающему кровью Мигелю, что он отомстит за его смерть. Но умирающий христианин Мигель просит Диэго (лучшего фехтовальщика Старого Света) дать клятву, что он не будет мстить за него путём насилия. / Заручившись поддержкой губернаторского перстня и вверительной грамоты герой приезжает в Нуэва Арагону и изображая бестолкового и флегматичного губернатора обнаруживает, что власть в этой испанской колонии узурпирована жестоким полковником Уэртой, по тайному приказу которого и был убит его лучший друг. Чтобы обуздать тиранию Уэрты и его армии герой начинает противостоять творящемуся произволу полковника с помощью двойной игры. / Облачившись в чёрный плащ, шляпу и маску он превращается в неуловимого Зорро, устраивающего погрязшим в роскоши, нечестным богатеям и солдатам Уэрты "партизанские" вылазки на площадях, базарах и каторгах Нуэва Арагоны.
    AppleStoreCatalogID : 735197174
    Vendor : Apple:vendor_id:1975-101095
    Video #1
    ID : 1
    Format : AVC
    Format/Info : Advanced Video Codec
    Format profile : High@L4.1
    Format settings, CABAC : Yes
    Format settings, ReFrames : 9 frames
    Codec ID : avc1
    Codec ID/Info : Advanced Video Coding
    Duration : 1h 58mn
    Bit rate : 2 898 Kbps
    Width : 1 024 pixels
    Height : 554 pixels
    Display aspect ratio : 1.85:1
    Frame rate mode : Variable
    Frame rate : 23.976 fps
    Minimum frame rate : 23.974 fps
    Maximum frame rate : 23.981 fps
    Color space : YUV
    Chroma subsampling : 4:2:0
    Bit depth : 8 bits
    Scan type : Progressive
    Bits/(Pixel*Frame) : 0.213
    Stream size : 2.39 GiB (85%)
    Writing library : x264 core 142 r2479 dd79a61
    Encoding settings : cabac=1 / ref=9 / deblock=1:-2:-1 / analyse=0x3:0x113 / me=esa / subme=9 / psy=1 / psy_rd=1.00:0.00 / mixed_ref=1 / me_range=32 / chroma_me=1 / trellis=2 / 8x8dct=1 / cqm=0 / deadzone=21,11 / fast_pskip=1 / chroma_qp_offset=-2 / threads=6 / lookahead_threads=1 / sliced_threads=0 / nr=0 / decimate=1 / interlaced=0 / bluray_compat=0 / constrained_intra=0 / bframes=11 / b_pyramid=2 / b_adapt=2 / b_bias=0 / direct=1 / weightb=1 / open_gop=0 / weightp=2 / keyint=240 / keyint_min=24 / scenecut=40 / intra_refresh=0 / rc_lookahead=30 / rc=crf / mbtree=1 / crf=18.0 / qcomp=0.60 / qpmin=0 / qpmax=69 / qpstep=4 / vbv_maxrate=62500 / vbv_bufsize=78125 / crf_max=0.0 / nal_hrd=none / filler=0 / ip_ratio=1.40 / aq=1:1.00
    Language : French
    Encoded date : UTC 1904-01-01 00:00:00
    Tagged date : UTC 1904-01-01 00:00:00
    Color primaries : BT.709
    Transfer characteristics : BT.709
    Matrix coefficients : BT.709
    Color range : Limited
    Video #2
    ID : 6
    Format : JPEG
    Codec ID : jpeg
    Duration : 1h 58mn
    Bit rate mode : Variable
    Bit rate : 765 bps
    Width : 640 pixels
    Height : 346 pixels
    Display aspect ratio : 1.85:1
    Frame rate mode : Variable
    Frame rate : 0.002 fps
    Minimum frame rate : 0.001 fps
    Maximum frame rate : 0.010 fps
    Color space : YUV
    Chroma subsampling : 4:2:0
    Bit depth : 8 bits
    Compression mode : Lossy
    Bits/(Pixel*Frame) : 1.727
    Stream size : 560 KiB (0%)
    Language : French
    Encoded date : UTC 2015-01-25 06:09:37
    Tagged date : UTC 2015-01-25 06:09:37
    Audio #1
    ID : 2
    Format : AAC
    Format/Info : Advanced Audio Codec
    Format profile : LC
    Codec ID : 40
    Duration : 1h 58mn
    Bit rate mode : Variable
    Bit rate : 161 Kbps
    Maximum bit rate : 192 Kbps
    Channel(s) : 2 channels
    Channel positions : Front: L R
    Sampling rate : 48.0 KHz
    Compression mode : Lossy
    Stream size : 136 MiB (5%)
    Title : DUB / DUB
    Language : Russian
    Encoded date : UTC 1904-01-01 00:00:00
    Tagged date : UTC 1904-01-01 00:00:00
    Audio #2
    ID : 3
    Format : AAC
    Format/Info : Advanced Audio Codec
    Format profile : LC
    Codec ID : 40
    Duration : 1h 58mn
    Bit rate mode : Variable
    Bit rate : 160 Kbps
    Maximum bit rate : 188 Kbps
    Channel(s) : 2 channels
    Channel positions : Front: L R
    Sampling rate : 48.0 KHz
    Compression mode : Lossy
    Stream size : 136 MiB (5%)
    Title : MVO / MVO
    Language : Russian
    Encoded date : UTC 1904-01-01 00:00:00
    Tagged date : UTC 1904-01-01 00:00:00
    Audio #3
    ID : 4
    Format : AAC
    Format/Info : Advanced Audio Codec
    Format profile : LC
    Codec ID : 40
    Duration : 1h 58mn
    Bit rate mode : Variable
    Bit rate : 160 Kbps
    Maximum bit rate : 197 Kbps
    Channel(s) : 2 channels
    Channel positions : Front: L R
    Sampling rate : 48.0 KHz
    Compression mode : Lossy
    Stream size : 136 MiB (5%)
    Title : Original / Original
    Language : English
    Encoded date : UTC 1904-01-01 00:00:00
    Tagged date : UTC 1904-01-01 00:00:00
    Menu
    ID : 5
    Codec ID : text
    Duration : 1h 58mn
    Language : French
    Encoded date : UTC 1904-01-01 00:00:00
    Tagged date : UTC 1904-01-01 00:00:00
    00:00:00.000 : Chapter 1
    00:11:25.393 : Chapter 2
    00:23:12.308 : Chapter 3
    00:31:42.692 : Chapter 4
    00:46:22.989 : Chapter 5
    00:57:23.565 : Chapter 6
    01:08:58.134 : Chapter 7
    01:20:52.181 : Chapter 8
    01:31:09.506 : Chapter 9
    01:38:30.780 : Chapter 10
    01:44:30.139 : Chapter 11
    01:56:42.829 : Chapter 12
    Bit rate mode : VBR

    Скриншоты

    Скачать .torrent

    Скачать торрент-файл бесплатно и на максимальной скорости!

    Как скачивать? · Что такое торрент? · Рейтинг и ограничения

    !ВНИМАНИЕ!
    Сайт не распространяет и не хранит электронные версии произведений, а занимается лишь лишь предоставлением доступа к создаваемому пользователями каталогу ссылок на торрент-файлы, которые содержат только списки хеш-сумм, убедительная просьба с жалобами обращаться напрямую к пользователю. Файлы для обмена на трекере предоставлены пользователями сайта, и администрация не несёт ответственности за их содержание. Просьба не заливать файлы, защищенные авторскими правами, а также файлы нелегального содержания!


    _________________
    [Профиль] [ЛС]
    Показать сообщения:    
    Ответить на тему

    Текущее время: Сегодня, в 00:29

    Часовой пояс: GMT + 2



    Вы не можете начинать темы
    Вы не можете отвечать на сообщения
    Вы не можете редактировать свои сообщения
    Вы не можете удалять свои сообщения
    Вы не можете голосовать в опросах
    Вы не можете прикреплять файлы к сообщениям
    Вы не можете скачивать файлы