BitTorrentTracker PerecTracker.org
BitTorrentTracker PerecTracker.org
    
Регистрация  ·  Вход
 
 · 
Забыли пароль?

  • Фантоцци / Fantozzi (Лучано Сальче / Luciano Salce) [1975, комедия, DVDRip, 480p] MVO, Original

    Ответить на тему
     
    Автор Сообщение

    rechyn

    Создавать темы 02-Сен-2015 12:54

           

    [Цитировать]

    Фантоцци / Fantozzi

    Год выпуска: 1975
    Страна: Италия
    Жанр: комедия
    Продолжительность: 01:37:12
    Режиссёр: Лучиано Сальче
    Продюсер: Лучиано Сальче
    Сценарий: Паоло Вилладжо, Леонардо Бенвенути, Пьеро Де Бернарди
    В ролях: Паоло Вилладжо, Анна Маццамауро, Жижи Редер, Джузеппе Анатрелли, Умберто Д’Орси, Лью Босисио, Дино Эмануэлли, Плинио Фернандо, Паоло Паолони, Елена Триколи
    Описание:
    Уго Фантоцци всю жизнь работает младшим бухгалтером, ездит на работу в автобусе, никогда не изменял жене. Начальство ни разу не повысило ему зарплату, женщины его не замечают, а коллеги не помнят, как его зовут. В самом начале первого фильма о недотепе жена звонит ему на работу, так как его нет дома уже 17-ый день, но никто даже не заметил его отсутствия.
    Оказывается, его случайно замуровали в отсеке старых лифтов. Зритель узнает Уго, его семью, коллег по работе, о его любви к синьорине Сильвани. Настоящий цирк устраивает он в японском ресторане, а Новый Год, проведенный с Уго, не забудется никогда...
    Исходник: DVD9
    Контейнер: m4v
    Видео: H.264, 640@852x470, 1800 kbps, 25 fps
    Аудио: AAC, 132 kbps, 48kHz
    Дорожка 1: RUS [2 ch] – Профессиональный (многоголосый закадровый)
    Дорожка 2: ITA [1 ch] – Оригинал
    Главы: прописаны
    Фильмы из серии:
    1. Фантоцци / Fantozzi [1975] - DVDRip 480p
    2. Второй трагический Фантоцци / Il secondo tragico Fantozzi [1976] - DVDRip 480p
    3. Фантоцци против всех / Fantozzi contro tutti [1980] - DVDRip 480p
    4. У Фантоцци опять неприятности / Fantozzi subisce ancora [1983] - DVDRip 480p

    iTunes Meta Tags

    Name: Fantozzi / Фантоцци
    Artist: Luciano Salce
    Release Date: 1975-03-27T08:00:00Z
    Description: Уго Фантоцци всю жизнь работает младшим бухгалтером, ездит на работу в автобусе, никогда не изменял жене. Начальство ни разу не повысило ему зарплату, женщины его не замечают, а коллеги не помнят, как его зовут.
    Long Description: Уго Фантоцци всю жизнь работает младшим бухгалтером, ездит на работу в автобусе, никогда не изменял жене. Начальство ни разу не повысило ему зарплату, женщины его не замечают, а коллеги не помнят, как его зовут. В самом начале первого фильма о недотепе жена звонит ему на работу, так как его нет дома уже 17-ый день, но никто даже не заметил его отсутствия. Оказывается, его случайно замуровали в отсеке старых лифтов. Зритель узнает Уго, его семью, коллег по работе, о его любви к синьорине Сильвани. Настоящий цирк устраивает он в японском ресторане, а Новый Год, проведенный с Уго, не забудется никогда...
    Cast: Паоло Вилладжо, Анна Маццамауро, Жижи Редер, Джузеппе Анатрелли, Умберто Д’Орси, Лью Босисио, Дино Эмануэлли, Плинио Фернандо, Паоло Паолони, Елена Триколи
    Director: Лучано Сальче
    Producers: Лучано Сальче
    Screenwriters: Паоло Вилладжо, Леонардо Бенвенути, Пьеро Де Бернарди
    contentID: 103355
    XID: Apple:vendor_id:1975-103355

    x264 log

    x264 [info]: frame I:1449 Avg QP:19.01 size: 37114
    x264 [info]: frame P:144362 Avg QP:21.31 size: 8711
    x264 [info]: mb I I16..4: 13.5% 0.0% 86.5%
    x264 [info]: mb P I16..4: 0.8% 0.0% 3.2% P16..4: 47.7% 22.2% 9.4% 0.0% 0.0% skip:16.7%
    x264 [info]: coded y,uvDC,uvAC intra: 80.2% 78.3% 44.6% inter: 32.4% 42.7% 4.0%
    x264 [info]: i16 v,h,dc,p: 36% 13% 9% 42%
    x264 [info]: i4 v,h,dc,ddl,ddr,vr,hd,vl,hu: 20% 6% 4% 10% 13% 17% 10% 12% 7%
    x264 [info]: i8c dc,h,v,p: 46% 20% 24% 10%
    x264 [info]: ref P L0: 78.7% 13.4% 7.9%
    x264 [info]: kb/s:1798.64

    MediaInfo

    General
    Format : MPEG-4
    Format profile : Base Media / Version 2
    Codec ID : mp42
    File size : 1.41 GiB
    Duration : 1h 37mn
    Overall bit rate mode : Variable
    Overall bit rate : 2 082 Kbps
    Movie name : Fantozzi / Фантоцци
    Performer : Luciano Salce
    Director : Лучано Сальче
    Actor : Паоло Вилладжо / Анна Маццамауро / Жижи Редер / Джузеппе Анатрелли / Умберто Д’Орси / Лью Босисио / Дино Эмануэлли / Плинио Фернандо / Паоло Паолони / Елена Триколи
    Screenplay by : Паоло Вилладжо / Леонардо Бенвенути / Пьеро Де Бернарди
    Producer : Лучано Сальче
    Genre : комедия
    ContentType : Short Film
    Description : Уго Фантоцци всю жизнь работает младшим бухгалтером, ездит на работу в автобусе, никогда не изменял жене. Начальство ни разу не повысило ему зарплату, женщины его не замечают, а коллеги не помнят, как его зовут.
    Recorded date : 1975-03-27
    Encoded date : UTC 1904-01-01 00:00:00
    Tagged date : UTC 2015-02-05 08:07:29
    Cover : Yes
    Rating : None
    LongDescription : Уго Фантоцци всю жизнь работает младшим бухгалтером, ездит на работу в автобусе, никогда не изменял жене. Начальство ни разу не повысило ему зарплату, женщины его не замечают, а коллеги не помнят, как его зовут. В самом начале первого фильма о недотепе жена звонит ему на работу, так как его нет дома уже 17-ый день, но никто даже не заметил его отсутствия. Оказывается, его случайно замуровали в отсеке старых лифтов. Зритель узнает Уго, его семью, коллег по работе, о его любви к синьорине Сильвани. Настоящий цирк устраивает он в японском ресторане, а Новый Год, проведенный с Уго, не забудется никогда…
    AppleStoreCatalogID : 103355
    Vendor : Apple:vendor_id:1975-103355
    Video #1
    ID : 1
    Format : AVC
    Format/Info : Advanced Video Codec
    Format profile : Baseline@L3.0
    Format settings, CABAC : No
    Format settings, ReFrames : 3 frames
    Codec ID : avc1
    Codec ID/Info : Advanced Video Coding
    Duration : 1h 37mn
    Bit rate : 1 800 Kbps
    Width : 640 pixels
    Height : 470 pixels
    Display aspect ratio : 16:9
    Original display aspect ratio : 16:9
    Frame rate mode : Constant
    Frame rate : 25.000 fps
    Color space : YUV
    Chroma subsampling : 4:2:0
    Bit depth : 8 bits
    Scan type : Progressive
    Bits/(Pixel*Frame) : 0.239
    Stream size : 1.22 GiB (86%)
    Writing library : x264 core 142 r2479 dd79a61
    Encoding settings : cabac=0 / ref=3 / deblock=1:-2:-1 / analyse=0x1:0x111 / me=umh / subme=9 / psy=1 / psy_rd=1.00:0.00 / mixed_ref=1 / me_range=32 / chroma_me=1 / trellis=1 / 8x8dct=0 / cqm=0 / deadzone=21,11 / fast_pskip=1 / chroma_qp_offset=-2 / threads=6 / lookahead_threads=1 / sliced_threads=0 / nr=0 / decimate=1 / interlaced=0 / bluray_compat=0 / constrained_intra=0 / bframes=0 / weightp=0 / keyint=250 / keyint_min=25 / scenecut=40 / intra_refresh=0 / rc_lookahead=40 / rc=2pass / mbtree=1 / bitrate=1800 / ratetol=1.0 / qcomp=0.60 / qpmin=0 / qpmax=69 / qpstep=4 / cplxblur=20.0 / qblur=0.5 / vbv_maxrate=5000 / vbv_bufsize=5000 / nal_hrd=none / filler=0 / ip_ratio=1.40 / aq=1:1.00
    Language : Italian
    Encoded date : UTC 1904-01-01 00:00:00
    Tagged date : UTC 1904-01-01 00:00:00
    Color primaries : BT.601 PAL
    Transfer characteristics : BT.709
    Matrix coefficients : BT.601
    Color range : Limited
    Video #2
    ID : 5
    Format : JPEG
    Codec ID : jpeg
    Duration : 1h 37mn
    Bit rate mode : Variable
    Bit rate : 750 bps
    Width : 640 pixels
    Height : 353 pixels
    Display aspect ratio : 16:9
    Frame rate mode : Variable
    Frame rate : 0.002 fps
    Minimum frame rate : 0.001 fps
    Maximum frame rate : 0.003 fps
    Color space : YUV
    Chroma subsampling : 4:2:0
    Bit depth : 8 bits
    Compression mode : Lossy
    Bits/(Pixel*Frame) : 1.660
    Stream size : 412 KiB (0%)
    Language : Italian
    Encoded date : UTC 2015-02-05 07:22:46
    Tagged date : UTC 2015-02-05 07:22:46
    Audio #1
    ID : 2
    Format : AAC
    Format/Info : Advanced Audio Codec
    Format profile : LC
    Codec ID : 40
    Duration : 1h 37mn
    Bit rate mode : Variable
    Bit rate : 132 Kbps
    Maximum bit rate : 149 Kbps
    Channel(s) : 2 channels
    Channel positions : Front: L R
    Sampling rate : 48.0 KHz
    Compression mode : Lossy
    Stream size : 93.0 MiB (6%)
    Title : Stereo
    Language : Russian
    Encoded date : UTC 1904-01-01 00:00:00
    Tagged date : UTC 1904-01-01 00:00:00
    Audio #2
    ID : 3
    Format : AAC
    Format/Info : Advanced Audio Codec
    Format profile : LC
    Codec ID : 40
    Duration : 1h 37mn
    Bit rate mode : Variable
    Bit rate : 132 Kbps
    Maximum bit rate : 217 Kbps
    Channel(s) : 2 channels
    Channel(s)_Original : 1 channel
    Channel positions : Front: C
    Sampling rate : 48.0 KHz
    Compression mode : Lossy
    Stream size : 91.4 MiB (6%)
    Title : Mono
    Language : Italian
    Encoded date : UTC 1904-01-01 00:00:00
    Tagged date : UTC 1904-01-01 00:00:00
    Menu
    ID : 4
    Codec ID : text
    Duration : 1h 37mn
    Language : Italian
    Encoded date : UTC 1904-01-01 00:00:00
    Tagged date : UTC 1904-01-01 00:00:00
    Bit rate mode : CBR
    00:00:00.000 : Chapter 1
    00:05:17.040 : Chapter 2
    00:14:05.320 : Chapter 3
    00:26:05.480 : Chapter 4
    00:36:39.920 : Chapter 5
    00:52:58.960 : Chapter 6
    01:04:11.160 : Chapter 7
    01:12:37.520 : Chapter 8
    01:28:16.120 : Chapter 9

    Скриншоты

    Скачать .torrent

    Скачать торрент-файл бесплатно и на максимальной скорости!

    Как скачивать? · Что такое торрент? · Рейтинг и ограничения

    !ВНИМАНИЕ!
    Сайт не распространяет и не хранит электронные версии произведений, а занимается лишь лишь предоставлением доступа к создаваемому пользователями каталогу ссылок на торрент-файлы, которые содержат только списки хеш-сумм, убедительная просьба с жалобами обращаться напрямую к пользователю. Файлы для обмена на трекере предоставлены пользователями сайта, и администрация не несёт ответственности за их содержание. Просьба не заливать файлы, защищенные авторскими правами, а также файлы нелегального содержания!


    _________________
    [Профиль] [ЛС]
    Показать сообщения:    
    Ответить на тему

    Текущее время: Сегодня, в 04:08

    Часовой пояс: GMT + 2



    Вы не можете начинать темы
    Вы не можете отвечать на сообщения
    Вы не можете редактировать свои сообщения
    Вы не можете удалять свои сообщения
    Вы не можете голосовать в опросах
    Вы не можете прикреплять файлы к сообщениям
    Вы не можете скачивать файлы