BitTorrentTracker PerecTracker.org
BitTorrentTracker PerecTracker.org
    
Регистрация  ·  Вход
 
 · 
Забыли пароль?

  • Второй трагический Фантоцци / Il secondo tragico Fantozzi (Лучано Сальче / Luciano Salce) [1976, комедия, DVDRip, 480p] MVO, Original

    Ответить на тему
     
    Автор Сообщение

    rechyn

    Создавать темы 02-Сен-2015 12:54

           

    [Цитировать]

    Второй трагический Фантоцци / Il secondo tragico Fantozzi

    Год выпуска: 1976
    Страна: Италия
    Жанр: комедия
    Продолжительность: 01:44:59
    Режиссёр: Лучано Сальче
    Продюсер: Джованни Бертолуччи
    Сценарий: Леонардо Бенвенути, Пьеро Де Бернарди, Лучано Сальче
    В ролях: Паоло Вилладжо, Анна Маццамауро, Жижи Редер, Уго Болонья, Мауро Вестри, Плинио Фернандо, Антонино Фаа Ди Бруно, Ниэтта Дзокки, Паоло Паолони, Джузеппе Анатрелли
    Описание:
    Второй фильм о злоключениях младшего бухгалтера Уго Фантоцци.
    Сопровождение герцога в казино Монте-Карло, охота с Феллини, званый прием с поеданием дроздов, поход в цирк, еженедельный просмотр интеллектуального кино и многое другое.
    Исходник: DVD9
    Контейнер: m4v
    Видео: H.264, 640@852x470, 1800 kbps, 25 fps
    Аудио: AAC, 132 kbps, 48kHz
    Дорожка 1: RUS [2 ch] – Профессиональный (многоголосый закадровый)
    Дорожка 2: ITA [1 ch] – Оригинал
    Главы: прописаны
    Фильмы из серии:
    1. Фантоцци / Fantozzi [1975] - DVDRip 480p
    2. Второй трагический Фантоцци / Il secondo tragico Fantozzi [1976] - DVDRip 480p
    3. Фантоцци против всех / Fantozzi contro tutti [1980] - DVDRip 480p
    4. У Фантоцци опять неприятности / Fantozzi subisce ancora [1983] - DVDRip 480p

    iTunes Meta Tags

    Name: Il secondo tragico Fantozzi / Второй трагический Фантоцци
    Artist: Luciano Salce
    Release Date: 1976-04-15T08:00:00Z
    Description: Сопровождение герцога в казино Монте-Карло, охота с Феллини, званый прием с поеданием дроздов, поход в цирк, еженедельный просмотр интеллектуального кино и многое другое.
    Long Description: Второй фильм о злоключениях младшего бухгалтера Уго Фантоцци. Сопровождение герцога в казино Монте-Карло, охота с Феллини, званый прием с поеданием дроздов, поход в цирк, еженедельный просмотр интеллектуального кино и многое другое.
    Cast: Паоло Вилладжо, Анна Маццамауро, Жижи Редер, Уго Болонья, Мауро Вестри, Плинио Фернандо, Антонино Фаа Ди Бруно, Ниэтта Дзокки, Паоло Паолони, Джузеппе Анатрелли
    Director: Лучано Сальче
    Producers: Джованни Бертолуччи
    Screenwriters: Леонардо Бенвенути, Пьеро Де Бернарди, Лучано Сальче
    contentID: 103356
    XID: Apple:vendor_id:1976-103356

    x264 log

    x264 [info]: frame I:1852 Avg QP:20.50 size: 35965
    x264 [info]: frame P:155628 Avg QP:22.70 size: 8678
    x264 [info]: mb I I16..4: 16.6% 0.0% 83.4%
    x264 [info]: mb P I16..4: 0.7% 0.0% 3.0% P16..4: 46.5% 20.8% 9.3% 0.0% 0.0% skip:19.6%
    x264 [info]: coded y,uvDC,uvAC intra: 82.7% 75.8% 40.3% inter: 32.5% 37.3% 3.0%
    x264 [info]: i16 v,h,dc,p: 38% 18% 10% 34%
    x264 [info]: i4 v,h,dc,ddl,ddr,vr,hd,vl,hu: 19% 5% 3% 11% 14% 18% 10% 13% 7%
    x264 [info]: i8c dc,h,v,p: 46% 20% 25% 9%
    x264 [info]: ref P L0: 79.2% 13.0% 7.8%
    x264 [info]: kb/s:1799.87

    MediaInfo

    General
    Format : MPEG-4
    Format profile : Base Media / Version 2
    Codec ID : mp42
    File size : 1.53 GiB
    Duration : 1h 44mn
    Overall bit rate mode : Variable
    Overall bit rate : 2 084 Kbps
    Movie name : Il secondo tragico Fantozzi / Второй трагический Фантоцци
    Performer : Luciano Salce
    Director : Лучано Сальче
    Actor : Паоло Вилладжо / Анна Маццамауро / Жижи Редер / Уго Болонья / Мауро Вестри / Плинио Фернандо / Антонино Фаа Ди Бруно / Ниэтта Дзокки / Паоло Паолони / Джузеппе Анатрелли
    Screenplay by : Леонардо Бенвенути / Пьеро Де Бернарди / Лучано Сальче
    Producer : Джованни Бертолуччи
    Genre : комедия
    ContentType : Short Film
    Description : Сопровождение герцога в казино Монте-Карло, охота с Феллини, званый прием с поеданием дроздов, поход в цирк, еженедельный просмотр интеллектуального кино и многое другое.
    Recorded date : 1976-01-01
    Encoded date : UTC 1904-01-01 00:00:00
    Tagged date : UTC 2015-02-05 15:03:45
    Cover : Yes
    Rating : None
    LongDescription : Второй фильм о злоключениях младшего бухгалтера Уго Фантоцци. Сопровождение герцога в казино Монте-Карло, охота с Феллини, званый прием с поеданием дроздов, поход в цирк, еженедельный просмотр интеллектуального кино и многое другое.
    AppleStoreCatalogID : 103356
    Vendor : Apple:vendor_id:1976-103356
    Video #1
    ID : 1
    Format : AVC
    Format/Info : Advanced Video Codec
    Format profile : Baseline@L3.0
    Format settings, CABAC : No
    Format settings, ReFrames : 3 frames
    Format settings, GOP : N=1
    Codec ID : avc1
    Codec ID/Info : Advanced Video Coding
    Duration : 1h 44mn
    Bit rate : 1 800 Kbps
    Width : 640 pixels
    Height : 470 pixels
    Display aspect ratio : 16:9
    Original display aspect ratio : 16:9
    Frame rate mode : Constant
    Frame rate : 25.000 fps
    Color space : YUV
    Chroma subsampling : 4:2:0
    Bit depth : 8 bits
    Scan type : Progressive
    Bits/(Pixel*Frame) : 0.239
    Stream size : 1.32 GiB (86%)
    Writing library : x264 core 142 r2479 dd79a61
    Encoding settings : cabac=0 / ref=3 / deblock=1:-2:-1 / analyse=0x1:0x111 / me=umh / subme=9 / psy=1 / psy_rd=1.00:0.00 / mixed_ref=1 / me_range=32 / chroma_me=1 / trellis=1 / 8x8dct=0 / cqm=0 / deadzone=21,11 / fast_pskip=1 / chroma_qp_offset=-2 / threads=6 / lookahead_threads=1 / sliced_threads=0 / nr=0 / decimate=1 / interlaced=0 / bluray_compat=0 / constrained_intra=0 / bframes=0 / weightp=0 / keyint=250 / keyint_min=25 / scenecut=40 / intra_refresh=0 / rc_lookahead=40 / rc=2pass / mbtree=1 / bitrate=1800 / ratetol=1.0 / qcomp=0.60 / qpmin=0 / qpmax=69 / qpstep=4 / cplxblur=20.0 / qblur=0.5 / vbv_maxrate=5000 / vbv_bufsize=5000 / nal_hrd=none / filler=0 / ip_ratio=1.40 / aq=1:1.00
    Language : Italian
    Encoded date : UTC 1904-01-01 00:00:00
    Tagged date : UTC 1904-01-01 00:00:00
    Color primaries : BT.601 PAL
    Transfer characteristics : BT.709
    Matrix coefficients : BT.601
    Color range : Limited
    Video #2
    ID : 5
    Format : JPEG
    Codec ID : jpeg
    Duration : 1h 44mn
    Bit rate mode : Variable
    Bit rate : 1 172 bps
    Width : 640 pixels
    Height : 353 pixels
    Display aspect ratio : 16:9
    Frame rate mode : Variable
    Frame rate : 0.003 fps
    Minimum frame rate : 0.002 fps
    Maximum frame rate : 0.013 fps
    Color space : YUV
    Chroma subsampling : 4:2:0
    Bit depth : 8 bits
    Compression mode : Lossy
    Bits/(Pixel*Frame) : 1.729
    Stream size : 859 KiB (0%)
    Language : Italian
    Encoded date : UTC 2015-02-05 11:46:15
    Tagged date : UTC 2015-02-05 11:46:16
    Audio #1
    ID : 2
    Format : AAC
    Format/Info : Advanced Audio Codec
    Format profile : LC
    Codec ID : 40
    Duration : 1h 44mn
    Bit rate mode : Variable
    Bit rate : 132 Kbps
    Maximum bit rate : 153 Kbps
    Channel(s) : 2 channels
    Channel positions : Front: L R
    Sampling rate : 48.0 KHz
    Compression mode : Lossy
    Stream size : 101 MiB (6%)
    Title : Stereo
    Language : Russian
    Encoded date : UTC 1904-01-01 00:00:00
    Tagged date : UTC 1904-01-01 00:00:00
    Audio #2
    ID : 3
    Format : AAC
    Format/Info : Advanced Audio Codec
    Format profile : LC
    Codec ID : 40
    Duration : 1h 44mn
    Bit rate mode : Variable
    Bit rate : 132 Kbps
    Maximum bit rate : 173 Kbps
    Channel(s) : 2 channels
    Channel(s)_Original : 1 channel
    Channel positions : Front: C
    Sampling rate : 48.0 KHz
    Compression mode : Lossy
    Stream size : 98.8 MiB (6%)
    Title : Mono
    Language : Italian
    Encoded date : UTC 1904-01-01 00:00:00
    Tagged date : UTC 1904-01-01 00:00:00
    Menu
    ID : 4
    Codec ID : text
    Duration : 1h 44mn
    Language : Italian
    Encoded date : UTC 1904-01-01 00:00:00
    Tagged date : UTC 1904-01-01 00:00:00
    00:00:00.000 : Chapter 1
    00:06:24.280 : Chapter 2
    00:10:01.320 : Chapter 3
    00:14:00.120 : Chapter 4
    00:22:05.800 : Chapter 5
    00:23:23.720 : Chapter 6
    00:31:24.680 : Chapter 7
    00:34:36.080 : Chapter 8
    00:37:29.760 : Chapter 9
    00:45:49.720 : Chapter 10
    00:52:41.840 : Chapter 11
    00:58:28.800 : Chapter 12
    01:05:03.760 : Chapter 13
    01:10:15.720 : Chapter 14
    01:19:59.080 : Chapter 15
    01:26:39.680 : Chapter 16
    01:36:11.160 : Chapter 17
    01:39:51.880 : Chapter 18
    Bit rate mode : VBR

    Скриншоты

    Скачать .torrent

    Скачать торрент-файл бесплатно и на максимальной скорости!

    Как скачивать? · Что такое торрент? · Рейтинг и ограничения

    !ВНИМАНИЕ!
    Сайт не распространяет и не хранит электронные версии произведений, а занимается лишь лишь предоставлением доступа к создаваемому пользователями каталогу ссылок на торрент-файлы, которые содержат только списки хеш-сумм, убедительная просьба с жалобами обращаться напрямую к пользователю. Файлы для обмена на трекере предоставлены пользователями сайта, и администрация не несёт ответственности за их содержание. Просьба не заливать файлы, защищенные авторскими правами, а также файлы нелегального содержания!


    _________________
    [Профиль] [ЛС]
    Показать сообщения:    
    Ответить на тему

    Текущее время: Сегодня, в 20:14

    Часовой пояс: GMT + 2



    Вы не можете начинать темы
    Вы не можете отвечать на сообщения
    Вы не можете редактировать свои сообщения
    Вы не можете удалять свои сообщения
    Вы не можете голосовать в опросах
    Вы не можете прикреплять файлы к сообщениям
    Вы не можете скачивать файлы