BitTorrentTracker PerecTracker.org
BitTorrentTracker PerecTracker.org
    
Регистрация  ·  Вход
 
 · 
Забыли пароль?

  • [iPad] Загородная прогулка / A Day in the Country / Partie de Campagne (Жан Ренуар / Jean Renoir) [1936, драма, мелодрама, BDRip, 576p] [Criterion] MVO, Original, sub (rus)

    Ответить на тему
     
    Автор Сообщение

    rechyn

    Создавать темы 02-Сен-2015 12:54

           

    [Цитировать]

    Загородная прогулка / A Day in the Country / Partie de Campagne

    Год выпуска: 1936
    Страна: Франция
    Жанр: драма, мелодрама
    Продолжительность: 00:41:05
    Режиссёр: Жан Ренуар
    Продюсер: Пьер Бронберже
    Сценарий: Жан Ренуар, Ги де Мопассан
    В ролях: Сильвия Батай, Жорж Д’Арно, Жана Маркен, André Gabriello, Жак Б. Брюниус, Поль Темп, Габриель Фонтан, Жан Ренуар, Пьер Лестренгес, Жорж Батай
    Описание:
    Чудесный летний день в сельской местности - семейство Дюфур вышло на прогулку. Мадам Дюфур и ее красотка-дочь флиртуют с повесами Анри и Родольфом. Для мадам это лишь легкое увлечение, юная Генриетта мечтает о большой любви. Последствия загородной прогулки аукнутся через много лет...
    Исходник: BDRemux [The Criterion Collection]
    Контейнер: m4v
    Видео: H.264, 798x576, 3500 kbps, 23,976 fps
    Аудио: AAC, 1 ch, 128 kbps, 48 kHz
    Дорожка 1: RUS – Профессиональный (многоголосый, закадровый)
    Дорожка 3: FRA – Оригинал
    Главы: прописаны

    iTunes Meta Tags

    Name: Partie de Campagne / Загородная прогулка
    Artist: Jean Renoir
    Release Date: 1936-05-05T08:00:00Z
    Description: Чудесный летний день в сельской местности - семейство Дюфур вышло на прогулку.
    Long Description: Чудесный летний день в сельской местности - семейство Дюфур вышло на прогулку. Мадам Дюфур и ее красотка-дочь флиртуют с повесами Анри и Родольфом. Для мадам это лишь легкое увлечение, юная Генриетта мечтает о большой любви. Последствия загородной прогулки аукнутся через много лет...
    Cast: Сильвия Батай, Жорж Д’Арно, Жана Маркен, André Gabriello, Жак Б. Брюниус, Поль Темп, Габриель Фонтан, Жан Ренуар, Пьер Лестренгес, Жорж Батай
    Director: Жан Ренуар
    Producers: Пьер Бронберже
    Screenwriters: Жан Ренуар, Ги де Мопассан
    contentID: 957938037
    XID: Apple:vendor_id:1936-57042

    x264 log

    x264 [info]: frame I:321 Avg QP:20.15 size: 84607
    x264 [info]: frame P:11497 Avg QP:23.18 size: 40203
    x264 [info]: frame B:47285 Avg QP:26.24 size: 12455
    x264 [info]: consecutive B-frames: 0.8% 0.3% 1.8% 22.0% 18.4% 52.0% 2.1% 0.7% 0.6% 0.2% 0.3% 0.8%
    x264 [info]: mb I I16..4: 4.1% 76.9% 18.9%
    x264 [info]: mb P I16..4: 0.3% 12.8% 1.4% P16..4: 33.3% 31.0% 16.4% 0.0% 0.0% skip: 4.8%
    x264 [info]: mb B I16..4: 0.0% 1.8% 0.1% B16..8: 40.5% 10.9% 4.8% direct: 9.5% skip:32.4% L0:42.9% L1:44.0% BI:13.1%
    x264 [info]: 8x8 transform intra:88.3% inter:57.8%
    x264 [info]: coded y,uvDC,uvAC intra: 96.9% 0.0% 0.0% inter: 39.2% 0.0% 0.0%
    x264 [info]: i16 v,h,dc,p: 36% 21% 9% 34%
    x264 [info]: i8 v,h,dc,ddl,ddr,vr,hd,vl,hu: 7% 8% 7% 10% 15% 14% 15% 11% 13%
    x264 [info]: i4 v,h,dc,ddl,ddr,vr,hd,vl,hu: 6% 6% 3% 10% 18% 15% 16% 12% 15%
    x264 [info]: i8c dc,h,v,p: 100% 0% 0% 0%
    x264 [info]: Weighted P-Frames: Y:16.3% UV:0.1%
    x264 [info]: ref P L0: 38.9% 12.8% 17.8% 9.0% 6.7% 5.4% 4.3% 2.7% 2.1% 0.3% 0.0%
    x264 [info]: ref B L0: 77.4% 10.5% 4.7% 2.6% 2.0% 1.6% 0.9% 0.4%
    x264 [info]: ref B L1: 96.3% 3.7%
    x264 [info]: kb/s:3499.38

    MediaInfo

    General
    Format : MPEG-4
    Format profile : Base Media / Version 2
    Codec ID : mp42
    File size : 1.08 GiB
    Duration : 41mn 5s
    Overall bit rate mode : Variable
    Overall bit rate : 3 766 Kbps
    Movie name : Partie de Campagne / Загородная прогулка
    Performer : Jean Renoir
    Director : Жан Ренуар
    Actor : Сильвия Батай / Жорж Д’Арно / Жана Маркен / André Gabriello / Жак Б. Брюниус / Поль Темп / Габриель Фонтан / Жан Ренуар / Пьер Лестренгес / Жорж Батай
    Screenplay by : Жан Ренуар / Ги де Мопассан
    Producer : Пьер Бронберже
    Production studio : Panthéon Productions
    Genre : Classics
    ContentType : Short Film
    Description : Чудесный летний день в сельской местности - семейство Дюфур вышло на прогулку.
    Recorded date : 1936-01-01
    Tagged date : UTC 2015-02-10 11:41:04
    Copyright : © 1936 Les Films du Panthéon
    Cover : Yes
    Rating : None
    LongDescription : Чудесный летний день в сельской местности - семейство Дюфур вышло на прогулку. Мадам Дюфур и ее красотка-дочь флиртуют с повесами Анри и Родольфом. Для мадам это лишь легкое увлечение, юная Генриетта мечтает о большой любви. Последствия загородной прогулки аукнутся через много лет...
    AppleStoreCountry : United States
    AppleStoreCatalogID : 957938037
    Vendor : Apple:vendor_id:1936-57042
    ContentRating : mpaa|NR|000|
    Video #1
    ID : 1
    Format : AVC
    Format/Info : Advanced Video Codec
    Format profile : High@L4.1
    Format settings, CABAC : Yes
    Format settings, ReFrames : 9 frames
    Codec ID : avc1
    Codec ID/Info : Advanced Video Coding
    Duration : 41mn 5s
    Bit rate : 3 500 Kbps
    Width : 798 pixels
    Height : 576 pixels
    Display aspect ratio : 1.385
    Frame rate mode : Variable
    Frame rate : 23.976 fps
    Minimum frame rate : 23.974 fps
    Maximum frame rate : 23.981 fps
    Color space : YUV
    Chroma subsampling : 4:2:0
    Bit depth : 8 bits
    Scan type : Progressive
    Bits/(Pixel*Frame) : 0.318
    Stream size : 1.00 GiB (93%)
    Writing library : x264 core 142 r2479 dd79a61
    Encoding settings : cabac=1 / ref=9 / deblock=1:-2:-1 / analyse=0x3:0x113 / me=umh / subme=9 / psy=1 / psy_rd=1.00:0.00 / mixed_ref=1 / me_range=32 / chroma_me=1 / trellis=2 / 8x8dct=1 / cqm=0 / deadzone=21,11 / fast_pskip=1 / chroma_qp_offset=-2 / threads=6 / lookahead_threads=1 / sliced_threads=0 / nr=0 / decimate=1 / interlaced=0 / bluray_compat=0 / constrained_intra=0 / bframes=11 / b_pyramid=2 / b_adapt=2 / b_bias=0 / direct=1 / weightb=1 / open_gop=0 / weightp=2 / keyint=240 / keyint_min=24 / scenecut=40 / intra_refresh=0 / rc_lookahead=30 / rc=2pass / mbtree=1 / bitrate=3500 / ratetol=1.0 / qcomp=0.60 / qpmin=0 / qpmax=69 / qpstep=4 / cplxblur=20.0 / qblur=0.5 / vbv_maxrate=62500 / vbv_bufsize=78125 / nal_hrd=none / filler=0 / ip_ratio=1.40 / aq=1:1.00
    Language : French
    Color primaries : BT.709
    Transfer characteristics : BT.709
    Matrix coefficients : BT.709
    Color range : Limited
    Video #2
    ID : 5
    Format : JPEG
    Codec ID : jpeg
    Duration : 41mn 5s
    Bit rate mode : Variable
    Bit rate : 1 987 bps
    Width : 640 pixels
    Height : 461 pixels
    Display aspect ratio : 1.388
    Frame rate mode : Variable
    Frame rate : 0.003 fps
    Minimum frame rate : 0.002 fps
    Maximum frame rate : 0.005 fps
    Color space : YUV
    Chroma subsampling : 4:2:0
    Bit depth : 8 bits
    Compression mode : Lossy
    Bits/(Pixel*Frame) : 2.245
    Stream size : 647 KiB (0%)
    Language : French
    Encoded date : UTC 2015-02-10 10:02:56
    Tagged date : UTC 2015-02-10 10:02:56
    Audio #1
    ID : 2
    Format : AAC
    Format/Info : Advanced Audio Codec
    Format profile : LC
    Codec ID : 40
    Duration : 41mn 5s
    Bit rate mode : Variable
    Bit rate : 126 Kbps
    Maximum bit rate : 150 Kbps
    Channel(s) : 2 channels
    Channel(s)_Original : 1 channel
    Channel positions : Front: C
    Sampling rate : 48.0 KHz
    Compression mode : Lossy
    Stream size : 37.0 MiB (3%)
    Title : Mono
    Language : Russian
    Audio #2
    ID : 3
    Format : AAC
    Format/Info : Advanced Audio Codec
    Format profile : LC
    Codec ID : 40
    Duration : 41mn 5s
    Bit rate mode : Variable
    Bit rate : 123 Kbps
    Maximum bit rate : 148 Kbps
    Channel(s) : 2 channels
    Channel(s)_Original : 1 channel
    Channel positions : Front: C
    Sampling rate : 48.0 KHz
    Compression mode : Lossy
    Stream size : 36.2 MiB (3%)
    Title : Mono
    Language : French
    Text
    ID : 6
    Format : Timed Text
    Muxing mode : sbtl
    Codec ID : tx3g
    Duration : 39mn 27s
    Bit rate mode : Variable
    Bit rate : 69 bps
    Stream size : 20.0 KiB (0%)
    Language : English
    Encoded date : UTC 2015-02-10 11:38:53
    Tagged date : UTC 2015-02-10 11:40:01
    Menu
    ID : 4
    Codec ID : text
    Duration : 41mn 5s
    Language : French
    Bit rate mode : CBR
    00:00:00.000 : 00:00:00.000
    00:06:02.779 : 00:06:02.653
    00:10:56.531 : 00:10:56.447
    00:14:25.448 : 00:14:25.364
    00:19:00.348 : 00:19:00.264
    00:25:57.264 : 00:25:57.138
    00:32:08.009 : 00:32:07.926
    00:36:26.518 : 00:36:26.392

    Скриншоты

    Скачать .torrent

    Скачать торрент-файл бесплатно и на максимальной скорости!

    Как скачивать? · Что такое торрент? · Рейтинг и ограничения

    !ВНИМАНИЕ!
    Сайт не распространяет и не хранит электронные версии произведений, а занимается лишь лишь предоставлением доступа к создаваемому пользователями каталогу ссылок на торрент-файлы, которые содержат только списки хеш-сумм, убедительная просьба с жалобами обращаться напрямую к пользователю. Файлы для обмена на трекере предоставлены пользователями сайта, и администрация не несёт ответственности за их содержание. Просьба не заливать файлы, защищенные авторскими правами, а также файлы нелегального содержания!


    _________________
    [Профиль] [ЛС]
    Показать сообщения:    
    Ответить на тему

    Текущее время: Сегодня, в 00:08

    Часовой пояс: GMT + 2



    Вы не можете начинать темы
    Вы не можете отвечать на сообщения
    Вы не можете редактировать свои сообщения
    Вы не можете удалять свои сообщения
    Вы не можете голосовать в опросах
    Вы не можете прикреплять файлы к сообщениям
    Вы не можете скачивать файлы