BitTorrentTracker PerecTracker.org
BitTorrentTracker PerecTracker.org
    
Регистрация  ·  Вход
 
 · 
Забыли пароль?

  • [iPad] Зачётный препод / Fack ju Göhte (Бора Дагтекин / Bora Dagtekin ) [2013, Германия, Комедия, BDRip, SD (576p)] DUB + Original + sub (rus, ger, eng)

    Ответить на тему
     
    Автор Сообщение

    rechyn

    Создавать темы 02-Сен-2015 12:54

           

    [Цитировать]

    Зачётный препод / Fack ju Göhte
    -
    7.040 / 10 7.10 / 10
    -Год выпуска: 2013
    Страна: Германия
    Жанр: Комедия
    Продолжительность: 01:57:08
    Перевод: Профессиональный (дублированный) (R5)
    Оригинальная аудиодорожка: Есть
    Cубтитры: Русские, Немецкие, Английские
    Режиссёр: Бора Дагтекин
    Сценарий: Бора Дагтекин, Simon Hauschild
    Продюсер: Кристиан Бекер, Лена Олбрич, Бора Дагтекин
    Оператор: Кристоф Валь
    Композитор: Михаэль Бекманн
    Художник: Матиас Мюссе, Кристиан Шефер, Томас Гёльднер
    Монтаж: Чарльз Ладмираль, Цац Монтана
    В ролях: Элиас ЭмБарек, Каролина Херфурт, Катя Риман, Яна Палласке, Алвара Хёфельс, Йелла Хаазе, Макс фон Гробен, Анна-Лена Кленке, Гизем Эмре, Арам Арами
    Бюджет: €6 000 000
    Сборы в мире: $78 400 000
    Мировая премьера: 7 ноября 2013
    Премьера (РФ): 4 декабря 2014, «Ракета Релизинг»
    Релиз на DVD: 15 января 2015, «CD Land»
    Описание: Незадачливый грабитель банков Зеки Мюллер после тринадцати месяцев отсидки выходит из тюрьмы. Он отправляется на поиски награбленной добычи, которая была спрятана на стройке. Вместе с подружкой они думали, что там идёт всего-навсего прокладка труб. Каково же удивление горе-грабителя, когда он обнаруживает на нужном месте новенький школьный спортзал!-Качество исходника: BDRemux
    Качество: BDRip
    Тип: SD (576p)
    Контейнер: M4V
    Видео: H.264, 1024x432, 2.40:1, 2 550 Kbps, 23.976 fps
    Аудио 1: Русский/Профессиональный (дублированный) (R5), AAC / 2.0 / 158 Kbps / 48.0 KHz
    Аудио 2: Немецкий/Оригинальная дорожка , AAC / 2.0 / 156 Kbps / 48.0 KHz
    Субтитры 1: Русские полные
    Субтитры 2: Немецкие полные
    Субтитры 3: Английские полные
    -

    iTunes Meta Tags

    Sort Name: Иди к черту, Гёте
    XID: Apple:vendor_id:2013-771978
    contentID: 771978
    Screenwriters: Бора Дагтекин
    Producers: Кристиан Бекер, Лена Олбрич, Бора Дагтекин
    Director: Бора Дагтекин
    Cast: Элиас ЭмБарек, Каролина Херфурт, Катя Риман, Яна Палласке, Алвара Хёфельс, Йелла Хаазе, Макс фон Гробен, Анна-Лена Кленке, Гизем Эмре, Aram Arami
    Long Description: Незадачливый грабитель банков Зеки Мюллер после тринадцати месяцев отсидки выходит из тюрьмы. Он отправляется на поиски награбленной добычи, которая была спрятана на стройке. Вместе с подружкой они думали, что там идёт всего-навсего прокладка труб. Каково же удивление горе-грабителя, когда он обнаруживает на нужном месте новенький школьный спортзал!
    Чтобы добраться до награбленного, Зеки пытается устроиться на место школьного сторожа. Но в результате лёгкого недопонимания вместо этого его берут в качестве учителя на замену. Ему достаётся самый буйный и ненормальный класс во всей школе - 10 "Б". Используя несколько необычные методы, бывший грабитель неожиданно находит общий язык с учениками. Одновременно с этим по ночам он пытается добраться до спрятанной добычи и влюбляется в коллегу-учительницу Лиси.
    Description: Незадачливый грабитель банков Зеки Мюллер после тринадцати месяцев отсидки выходит из тюрьмы. Он отправляется на поиски награбленной добычи, которая была спрятана на стройке.
    Release Date: 2013-11-07T08:00:00Z
    Genre: Comedy
    Artist: Бора Дагтекин
    Name: Иди к черту, Гёте

    MediaInfo

    General
    Complete name                            : /Users/imac/HandBrake/Fack.ju.Gohte.(SD).(pk).m4v
    Format                                   : MPEG-4
    Codec ID                                 : M4V
    File size                                : 2.35 GiB
    Duration                                 : 1h 57mn
    Overall bit rate mode                    : Variable
    Overall bit rate                         : 2 871 Kbps
    Movie name                               : Иди к черту, Гёте
    Performer                                : Бора Дагтекин
    Genre                                    : Comedy
    Recorded date                            : UTC 2013-11-07 08:00:00
    Encoded date                             : UTC 2015-02-18 21:50:11
    Tagged date                              : UTC 2015-02-18 21:50:48
    Cover                                    : Yes
    sonm                                     : Иди к черту, Гёте
    desc                                     : Незадачливый грабитель банков Зеки Мюллер после тринадцати месяцев отсидки выходит из тюрьмы. Он отправляется на поиски награбленной добычи, которая была спрятана на стройке.
    ldes                                     : Незадачливый грабитель банков Зеки Мюллер после тринадцати месяцев отсидки выходит из тюрьмы. Он отправляется на поиски награбленной добычи, которая была спрятана на стройке. Вместе с подружкой они думали, что там идёт всего-навсего прокладка труб. Каково же удивление горе-грабителя, когда он обнаруживает на нужном месте новенький школьный спортзал! / Чтобы добраться до награбленного, Зеки пытается устроиться на место школьного сторожа. Но в результате лёгкого недопонимания вместо этого его берут в качестве учителя на замену. Ему достаётся самый буйный и ненормальный класс во всей школе - 10 "Б". Используя несколько необычные методы, бывший грабитель неожиданно находит общий язык с учениками. Одновременно с этим по ночам он пытается добраться до спрятанной добычи и влюбляется в коллегу-учительницу Лиси.
    stik                                     : 9
    rtng                                     : 0
    cnID                                     : 771978
    xid                                      : Apple:vendor_id:2013-771978
    iTunMOVI                                 : <?xml version=\"1.0\" encoding=\"UTF-8\"?> / <!DOCTYPE plist PUBLIC \"-//Apple//DTD PLIST 1.0//EN\" \"http://anonym.to/?http://www.apple.com/DTDs/PropertyList-1.0.dtd\"> / <plist version=\"1.0\"> / <dict> /  <key>cast</key> /  <array> /   <dict> /    <key>name</key> /    <string>Элиас ЭмБарек</string> /   </dict> /   <dict> /    <key>name</key> /    <string>Каролина Херфурт</string> /   </dict> /   <dict> /    <key>name</key> /    <string>Катя Риман</string> /   </dict> /   <dict> /    <key>name</key> /    <string>Яна Палласке</string> /   </dict> /   <dict> /    <key>name</key> /    <string>Алвара Хёфельс</string> /   </dict> /   <dict> /    <key>name</key> /    <string>Йелла Хаазе</string> /   </dict> /   <dict> /    <key>name</key> /    <string>Макс фон Гробен</string> /   </dict> /   <dict> /    <key>name</key> /    <string>Анна-Лена Кленке</string> /   </dict> /   <dict> /    <key>name</key> /    <string>Гизем Эмре</string> /   </dict> /   <dict> /    <key>name</key> /    <string>Aram Arami</string> /   </dict> /  </array> /  <key>directors</key> /  <array> /   <dict> /    <key>name</key> /    <string>Бора Дагтекин</string> /   </dict> /  </array> /  <key>producers</key> /  <array> /   <dict> /    <key>name</key> /    <string>Кристиан Бекер</string> /   </dict> /   <dict> /    <key>name</key> /    <string>Лена Олбрич</string> /   </dict> /   <dict> /    <key>name</key> /    <string>Бора Дагтекин</string> /   </dict> /  </array> /  <key>screenwriters</key> /  <array> /   <dict> /    <key>name</key> /    <string>Бора Дагтекин</string> /   </dict> /  </array> / </dict> / </plist>
    Video
    ID                                       : 1
    Format                                   : AVC
    Format/Info                              : Advanced Video Codec
    Format profile                           : High@L3.1
    Format settings, CABAC                   : Yes
    Format settings, ReFrames                : 9 frames
    Codec ID                                 : avc1
    Codec ID/Info                            : Advanced Video Coding
    Duration                                 : 1h 57mn
    Bit rate mode                            : Variable
    Bit rate                                 : 2 550 Kbps
    Width                                    : 1 024 pixels
    Height                                   : 432 pixels
    Display aspect ratio                     : 2.40:1
    Frame rate mode                          : Variable
    Frame rate                               : 23.976 fps
    Minimum frame rate                       : 23.810 fps
    Maximum frame rate                       : 24.318 fps
    Color space                              : YUV
    Chroma subsampling                       : 4:2:0
    Bit depth                                : 8 bits
    Scan type                                : Progressive
    Bits/(Pixel*Frame)                       : 0.240
    Stream size                              : 2.09 GiB (89%)
    Writing library                          : x264 core 142 r2479 dd79a61
    Encoding settings                        : cabac=1 / ref=9 / deblock=1:0:0 / analyse=0x3:0x113 / me=umh / subme=9 / psy=1 / psy_rd=1.00:0.00 / mixed_ref=1 / me_range=32 / chroma_me=1 / trellis=1 / 8x8dct=1 / cqm=0 / deadzone=21,11 / fast_pskip=1 / chroma_qp_offset=-2 / threads=36 / lookahead_threads=3 / sliced_threads=0 / nr=0 / decimate=1 / interlaced=0 / bluray_compat=0 / constrained_intra=0 / bframes=6 / b_pyramid=2 / b_adapt=2 / b_bias=0 / direct=1 / weightb=1 / open_gop=0 / weightp=2 / keyint=240 / keyint_min=24 / scenecut=40 / intra_refresh=0 / rc_lookahead=40 / rc=2pass / mbtree=1 / bitrate=2550 / ratetol=1.0 / qcomp=0.60 / qpmin=0 / qpmax=69 / qpstep=4 / cplxblur=20.0 / qblur=0.5 / ip_ratio=1.40 / aq=1:1.00
    Language                                 : German
    Encoded date                             : UTC 2015-02-18 21:50:11
    Tagged date                              : UTC 2015-02-18 21:50:19
    Color primaries                          : BT.709-5, BT.1361, IEC 61966-2-4, SMPTE RP177
    Transfer characteristics                 : BT.709-5, BT.1361
    Matrix coefficients                      : BT.709-5, BT.1361, IEC 61966-2-4 709, SMPTE RP177
    Audio #1
    ID                                       : 2
    Format                                   : AAC
    Format/Info                              : Advanced Audio Codec
    Format profile                           : LC
    Codec ID                                 : 40
    Duration                                 : 1h 57mn
    Bit rate mode                            : Variable
    Bit rate                                 : 158 Kbps
    Maximum bit rate                         : 227 Kbps
    Channel(s)                               : 2 channels
    Channel positions                        : Front: L R
    Sampling rate                            : 48.0 KHz
    Compression mode                         : Lossy
    Stream size                              : 132 MiB (5%)
    Language                                 : Russian
    Encoded date                             : UTC 2015-02-18 21:50:11
    Tagged date                              : UTC 2015-02-18 21:50:23
    Audio #2
    ID                                       : 3
    Format                                   : AAC
    Format/Info                              : Advanced Audio Codec
    Format profile                           : LC
    Codec ID                                 : 40
    Duration                                 : 1h 57mn
    Bit rate mode                            : Variable
    Bit rate                                 : 156 Kbps
    Maximum bit rate                         : 255 Kbps
    Channel(s)                               : 2 channels
    Channel positions                        : Front: L R
    Sampling rate                            : 48.0 KHz
    Compression mode                         : Lossy
    Stream size                              : 131 MiB (5%)
    Language                                 : German
    Encoded date                             : UTC 2015-02-18 21:50:11
    Tagged date                              : UTC 2015-02-18 21:50:23
    Text #1
    ID                                       : 4
    Format                                   : Timed text
    Muxing mode                              : sbtl
    Codec ID                                 : tx3g
    Duration                                 : 1h 48mn
    Bit rate mode                            : Variable
    Bit rate                                 : 118 bps
    Stream size                              : 93.6 KiB (0%)
    Language                                 : Russian
    Encoded date                             : UTC 2015-02-18 21:50:11
    Tagged date                              : UTC 2015-02-18 21:50:19
    Text #2
    ID                                       : 5
    Format                                   : Timed text
    Muxing mode                              : sbtl
    Codec ID                                 : tx3g
    Duration                                 : 1h 49mn
    Bit rate mode                            : Variable
    Bit rate                                 : 78 bps
    Stream size                              : 62.1 KiB (0%)
    Language                                 : German
    Encoded date                             : UTC 2015-02-18 21:50:11
    Tagged date                              : UTC 2015-02-18 21:50:19
    Text #3
    ID                                       : 6
    Format                                   : Timed text
    Muxing mode                              : sbtl
    Codec ID                                 : tx3g
    Duration                                 : 1h 57mn
    Bit rate mode                            : Variable
    Bit rate                                 : 68 bps
    Stream size                              : 58.1 KiB (0%)
    Language                                 : English
    Encoded date                             : UTC 2015-02-18 21:50:11
    Tagged date                              : UTC 2015-02-18 21:50:19

    x264 лог

    x264 [info]: frame I:3022  Avg QP:15.67  size: 94813
    x264 [info]: frame P:43692 Avg QP:19.07  size: 26841
    x264 [info]: frame B:121812 Avg QP:22.65  size:  6410
    x264 [info]: consecutive B-frames:  4.9%  4.4% 13.6% 32.8% 16.5% 24.4%  3.4%
    x264 [info]: mb I  I16..4: 10.0% 53.4% 36.5%
    x264 [info]: mb P  I16..4:  2.3%  8.8%  3.1%  P16..4: 36.3% 22.4% 15.6%  0.0%  0.0%    skip:11.6%
    x264 [info]: mb B  I16..4:  0.2%  0.9%  0.5%  B16..8: 36.0%  8.7%  3.4%  direct: 4.0%  skip:46.3%  L0:41.3% L1:43.9% BI:14.8%
    x264 [info]: 8x8 transform intra:58.7% inter:65.7%
    x264 [info]: coded y,uvDC,uvAC intra: 78.2% 90.8% 77.2% inter: 22.1% 29.2% 10.9%
    x264 [info]: i16 v,h,dc,p: 41% 18%  6% 35%
    x264 [info]: i8 v,h,dc,ddl,ddr,vr,hd,vl,hu: 14% 10%  7%  9% 12% 14% 12% 12% 11%
    x264 [info]: i4 v,h,dc,ddl,ddr,vr,hd,vl,hu: 12% 10%  4%  9% 14% 14% 13% 12% 13%
    x264 [info]: i8c dc,h,v,p: 40% 20% 21% 19%
    x264 [info]: Weighted P-Frames: Y:1.2% UV:0.7%
    x264 [info]: ref P L0: 54.6% 13.0% 13.5%  5.8%  3.9%  3.2%  2.4%  1.7%  1.5%  0.3%  0.0%
    x264 [info]: ref B L0: 81.1%  8.7%  4.5%  2.0%  1.6%  1.1%  0.7%  0.3%
    x264 [info]: ref B L1: 93.6%  6.4%
    x264 [info]: kb/s:2549.54

    Скриншоты

    -

    Релиз подготовлен для просмотра на Apple TV, iPad, iPhone, iPod Touch.
    Для просмотра данного релиза на компьютере с ОС Windows рекомендуется использовать VLC media player
    Скачать .torrent

    Скачать торрент-файл бесплатно и на максимальной скорости!

    Как скачивать? · Что такое торрент? · Рейтинг и ограничения

    !ВНИМАНИЕ!
    Сайт не распространяет и не хранит электронные версии произведений, а занимается лишь лишь предоставлением доступа к создаваемому пользователями каталогу ссылок на торрент-файлы, которые содержат только списки хеш-сумм, убедительная просьба с жалобами обращаться напрямую к пользователю. Файлы для обмена на трекере предоставлены пользователями сайта, и администрация не несёт ответственности за их содержание. Просьба не заливать файлы, защищенные авторскими правами, а также файлы нелегального содержания!


    _________________
    [Профиль] [ЛС]
    Показать сообщения:    
    Ответить на тему

    Текущее время: Сегодня, в 05:57

    Часовой пояс: GMT + 2



    Вы не можете начинать темы
    Вы не можете отвечать на сообщения
    Вы не можете редактировать свои сообщения
    Вы не можете удалять свои сообщения
    Вы не можете голосовать в опросах
    Вы не можете прикреплять файлы к сообщениям
    Вы не можете скачивать файлы