BitTorrentTracker PerecTracker.org
BitTorrentTracker PerecTracker.org
    
Регистрация  ·  Вход
 
 · 
Забыли пароль?

  • [iPad] Джон Уик / John Wick (Дэвид Лейтч / David Leitch ) [2014, Китай, Канада, США, Боевик, триллер, BDRip, SD (576p)] DUB + Original + sub (rus, eng)

    Ответить на тему
     
    Автор Сообщение

    rechyn

    Создавать темы 02-Сен-2015 12:54

           

    [Цитировать]

    Джон Уик / John Wick
    «Его лучше не трогать»
    6.850 / 10 7.20 / 10
    -Год выпуска: 2014
    Страна: Китай, Канада, США
    Жанр: Боевик, триллер
    Продолжительность: 01:41:13
    Перевод: Профессиональный (дублированный)
    Оригинальная аудиодорожка: Есть
    Cубтитры: Русские форсированные, Русские полные, Английские полные, Английские SDH
    Режиссёр: Дэвид Лейтч
    Сценарий: Дерек Кольстад
    Продюсер: Бэзил Иваник, Дэвид Лейтч, Ева Лонгория
    Оператор: Джонатан Села
    Композитор: Тайлер Бейтс, Джоэл Дж. Ричард
    Художник: Дэн Ли, С.Дж. Симпсон, Люка Моска
    Монтаж: Элизабет Рональдсдоттир
    В ролях: Киану Ривз, Микаэл Нюквист, Элфи Оуэн-Аллен, Уиллем Дефо, Дин Уинтерс, Эдрианн Палики, Омер Барнеа, Тоби Мур, Дэниэл Бернхард, Бриджет Мойнэхэн
    Бюджет: $20 000 000
    Сборы в США: $43 037 835
    Сборы в мире: + $35 702 062 = $78 739 897
    Сборы в России: $2 679 467
    Мировая премьера: 19 сентября 2014
    Премьера (РФ): 1 января 2015, «West»
    Описание: Джон Уик на первый взгляд самый обычный среднестатистический американец, который ведет спокойную мирную жизнь. Однако мало кто знает, что в свое время он был наемным убийцей, причем одним из лучших профессионалов в своем деле. После того, как преступник угоняет его любимый «Мустанг», 1969 года выпуска, при этом убив его собаку Дейзи, которая была единственным напоминанием об умершей супруге, Джон вынужден вернуться к своему прошлому. Теперь Уик начинает охоту на человека, который имел неосторожность перейти ему дорогу, и он готов на все, чтобы отомстить ему…-Качество исходника: BDRemux
    Качество: BDRip
    Тип: SD (576p)
    Контейнер: M4V
    Видео: H.264, 1024x432, 2.40:1, 2 200 Kbps, 23.976 fps
    Аудио 1: Русский/Профессиональный (дублированный), AAC / 2.0 / 152 Kbps / 48.0 KHz
    Аудио 2: Английский/Оригинальная дорожка , AAC / 2.0 / 157 Kbps / 48.0 KHz
    Субтитры 1: Русские форсированные
    Субтитры 2: Русские полные
    Субтитры 3: Английские полные
    Субтитры 4: Английские SDH
    -

    iTunes Meta Tags

    Sort Name: John Wick
    XID: Apple:vendor_id:2014-762738
    contentID: 928911988
    Copyright: © 2014 Summit Entertainment, LLC. All Rights Reserved.
    Screenwriters: Дерек Кольстад
    Producers: Бэзил Иваник, Дэвид Лейтч, Ева Лонгория
    Director: Чад Стахелски, Дэвид Лейтч
    Cast: Киану Ривз, Микаэл Нюквист, Элфи Оуэн-Аллен, Уиллем Дефо, Дин Уинтерс, Эдрианн Палики, Омер Барнеа, Тоби Мур, Дэниэл Бернхард, Бриджет Мойнэхэн
    Studio: Lionsgate
    Rating Annotation: Rated R for strong and bloody violence throughout, language and brief drug use.
    Rating: 11
    Long Description: Джон Уик - бывший наемный убийца - ведет размеренную жизнь, когда преступник крадет его любимый Mustang 1969 года и попутно убивает собаку Дейзи, единственное живое напоминание об умершей жене. Жажда мести пробуждает в нем, казалось, утерянную хватку...
    Description: Джон Уик - бывший наемный убийца - ведет размеренную жизнь, когда преступник крадет его любимый Mustang 1969 года и попутно убивает собаку Дейзи, единственное живое напоминание об умершей жене. Жажда мести пробуждает в нем, казалось, утерянную хватку...
    Release Date: 2014-09-19T08:00:00Z
    Genre: Action & Adventure
    Artist: Chad Stahelski  & David Leitch
    Name: John Wick

    MediaInfo

    General
    Complete name                            : /Users/imac/HandBrake/John Wick.(SD).(pk).m4v
    Format                                   : MPEG-4
    Codec ID                                 : M4V
    File size                                : 1.78 GiB
    Duration                                 : 1h 41mn
    Overall bit rate mode                    : Variable
    Overall bit rate                         : 2 518 Kbps
    Movie name                               : John Wick
    Performer                                : Chad Stahelski  & David Leitch
    Genre                                    : Action & Adventure
    Recorded date                            : UTC 2014-09-19 08:00:00
    Encoded date                             : UTC 2015-03-05 10:21:52
    Tagged date                              : UTC 2015-03-05 10:23:33
    Copyright                                : © 2014 Summit Entertainment, LLC. All Rights Reserved.
    Cover                                    : Yes
    sonm                                     : John Wick
    desc                                     : Джон Уик - бывший наемный убийца - ведет размеренную жизнь, когда преступник крадет его любимый Mustang 1969 года и попутно убивает собаку Дейзи, единственное живое напоминание об умершей жене. Жажда мести пробуждает в нем, казалось, утерянную хватку...
    ldes                                     : Джон Уик - бывший наемный убийца - ведет размеренную жизнь, когда преступник крадет его любимый Mustang 1969 года и попутно убивает собаку Дейзи, единственное живое напоминание об умершей жене. Жажда мести пробуждает в нем, казалось, утерянную хватку...
    stik                                     : 9
    rtng                                     : 0
    cnID                                     : 928911988
    xid                                      : Apple:vendor_id:2014-762738
    iTunEXTC                                 : mpaa|R|400|Rated R for strong and bloody violence throughout, language and brief drug use.
    iTunMOVI                                 : <?xml version=\"1.0\" encoding=\"UTF-8\"?> / <!DOCTYPE plist PUBLIC \"-//Apple//DTD PLIST 1.0//EN\" \"http://anonym.to/?http://www.apple.com/DTDs/PropertyList-1.0.dtd\"> / <plist version=\"1.0\"> / <dict> /  <key>cast</key> /  <array> /   <dict> /    <key>name</key> /    <string>Киану Ривз</string> /   </dict> /   <dict> /    <key>name</key> /    <string>Микаэл Нюквист</string> /   </dict> /   <dict> /    <key>name</key> /    <string>Элфи Оуэн-Аллен</string> /   </dict> /   <dict> /    <key>name</key> /    <string>Уиллем Дефо</string> /   </dict> /   <dict> /    <key>name</key> /    <string>Дин Уинтерс</string> /   </dict> /   <dict> /    <key>name</key> /    <string>Эдрианн Палики</string> /   </dict> /   <dict> /    <key>name</key> /    <string>Омер Барнеа</string> /   </dict> /   <dict> /    <key>name</key> /    <string>Тоби Мур</string> /   </dict> /   <dict> /    <key>name</key> /    <string>Дэниэл Бернхард</string> /   </dict> /   <dict> /    <key>name</key> /    <string>Бриджет Мойнэхэн</string> /   </dict> /  </array> /  <key>directors</key> /  <array> /   <dict> /    <key>name</key> /    <string>Чад Стахелски</string> /   </dict> /   <dict> /    <key>name</key> /    <string>Дэвид Лейтч</string> /   </dict> /  </array> /  <key>producers</key> /  <array> /   <dict> /    <key>name</key> /    <string>Бэзил Иваник</string> /   </dict> /   <dict> /    <key>name</key> /    <string>Дэвид Лейтч</string> /   </dict> /   <dict> /    <key>name</key> /    <string>Ева Лонгория</string> /   </dict> /  </array> /  <key>screenwriters</key> /  <array> /   <dict> /    <key>name</key> /    <string>Дерек Кольстад</string> /   </dict> /  </array> /  <key>studio</key> /  <string>Lionsgate</string> / </dict> / </plist>
    Video #1
    ID                                       : 1
    Format                                   : AVC
    Format/Info                              : Advanced Video Codec
    Format profile                           : High@L3.1
    Format settings, CABAC                   : Yes
    Format settings, ReFrames                : 9 frames
    Codec ID                                 : avc1
    Codec ID/Info                            : Advanced Video Coding
    Duration                                 : 1h 41mn
    Bit rate mode                            : Variable
    Bit rate                                 : 2 200 Kbps
    Width                                    : 1 024 pixels
    Height                                   : 432 pixels
    Display aspect ratio                     : 2.40:1
    Frame rate mode                          : Variable
    Frame rate                               : 23.976 fps
    Minimum frame rate                       : 23.810 fps
    Maximum frame rate                       : 24.272 fps
    Color space                              : YUV
    Chroma subsampling                       : 4:2:0
    Bit depth                                : 8 bits
    Scan type                                : Progressive
    Bits/(Pixel*Frame)                       : 0.207
    Stream size                              : 1.55 GiB (87%)
    Writing library                          : x264 core 142 r2479 dd79a61
    Encoding settings                        : cabac=1 / ref=9 / deblock=1:0:0 / analyse=0x3:0x113 / me=umh / subme=9 / psy=1 / psy_rd=1.00:0.00 / mixed_ref=1 / me_range=32 / chroma_me=1 / trellis=1 / 8x8dct=1 / cqm=0 / deadzone=21,11 / fast_pskip=1 / chroma_qp_offset=-2 / threads=36 / lookahead_threads=3 / sliced_threads=0 / nr=0 / decimate=1 / interlaced=0 / bluray_compat=0 / constrained_intra=0 / bframes=6 / b_pyramid=2 / b_adapt=2 / b_bias=0 / direct=1 / weightb=1 / open_gop=0 / weightp=2 / keyint=240 / keyint_min=24 / scenecut=40 / intra_refresh=0 / rc_lookahead=40 / rc=2pass / mbtree=1 / bitrate=2200 / ratetol=1.0 / qcomp=0.60 / qpmin=0 / qpmax=69 / qpstep=4 / cplxblur=20.0 / qblur=0.5 / ip_ratio=1.40 / aq=1:1.00
    Language                                 : English
    Encoded date                             : UTC 2015-03-05 10:21:52
    Tagged date                              : UTC 2015-03-05 10:21:57
    Color primaries                          : BT.709-5, BT.1361, IEC 61966-2-4, SMPTE RP177
    Transfer characteristics                 : BT.709-5, BT.1361
    Matrix coefficients                      : BT.709-5, BT.1361, IEC 61966-2-4 709, SMPTE RP177
    Video #2
    ID                                       : 9
    Format                                   : JPEG
    Codec ID                                 : jpeg
    Duration                                 : 1h 41mn
    Bit rate mode                            : Variable
    Bit rate                                 : 973 bps
    Width                                    : 640 pixels
    Height                                   : 270 pixels
    Display aspect ratio                     : 2.40:1
    Frame rate mode                          : Variable
    Frame rate                               : 0.003 fps
    Minimum frame rate                       : 0.002 fps
    Maximum frame rate                       : 0.005 fps
    Color space                              : YUV
    Chroma subsampling                       : 4:2:0
    Bit depth                                : 8 bits
    Compression mode                         : Lossy
    Bits/(Pixel*Frame)                       : 1.877
    Stream size                              : 634 KiB (0%)
    Language                                 : English
    Encoded date                             : UTC 2015-03-05 10:22:04
    Tagged date                              : UTC 2015-03-05 10:22:04
    Audio #1
    ID                                       : 2
    Format                                   : AAC
    Format/Info                              : Advanced Audio Codec
    Format profile                           : LC
    Codec ID                                 : 40
    Duration                                 : 1h 41mn
    Bit rate mode                            : Variable
    Bit rate                                 : 152 Kbps
    Maximum bit rate                         : 253 Kbps
    Channel(s)                               : 2 channels
    Channel positions                        : Front: L R
    Sampling rate                            : 48.0 KHz
    Compression mode                         : Lossy
    Stream size                              : 110 MiB (6%)
    Language                                 : Russian
    Encoded date                             : UTC 2015-03-05 10:21:52
    Tagged date                              : UTC 2015-03-05 10:22:00
    Audio #2
    ID                                       : 3
    Format                                   : AAC
    Format/Info                              : Advanced Audio Codec
    Format profile                           : LC
    Codec ID                                 : 40
    Duration                                 : 1h 41mn
    Bit rate mode                            : Variable
    Bit rate                                 : 157 Kbps
    Maximum bit rate                         : 252 Kbps
    Channel(s)                               : 2 channels
    Channel positions                        : Front: L R
    Sampling rate                            : 48.0 KHz
    Compression mode                         : Lossy
    Stream size                              : 114 MiB (6%)
    Language                                 : English
    Encoded date                             : UTC 2015-03-05 10:21:52
    Tagged date                              : UTC 2015-03-05 10:22:00
    Text #1
    ID                                       : 4
    Format                                   : Timed text
    Muxing mode                              : sbtl
    Codec ID                                 : tx3g
    Duration                                 : 1h 25mn
    Bit rate mode                            : Variable
    Bit rate                                 : 3 bps
    Stream size                              : 2.16 KiB (0%)
    Language                                 : Russian
    Encoded date                             : UTC 2015-03-05 10:21:52
    Tagged date                              : UTC 2015-03-05 10:21:52
    Text #2
    ID                                       : 5
    Format                                   : Timed text
    Muxing mode                              : sbtl
    Codec ID                                 : tx3g
    Duration                                 : 1h 34mn
    Bit rate mode                            : Variable
    Bit rate                                 : 43 bps
    Stream size                              : 30.1 KiB (0%)
    Language                                 : Russian
    Encoded date                             : UTC 2015-03-05 10:21:52
    Tagged date                              : UTC 2015-03-05 10:21:52
    Text #3
    ID                                       : 6
    Format                                   : Timed text
    Muxing mode                              : sbtl
    Codec ID                                 : tx3g
    Duration                                 : 1h 40mn
    Bit rate mode                            : Variable
    Bit rate                                 : 32 bps
    Stream size                              : 23.3 KiB (0%)
    Language                                 : English
    Encoded date                             : UTC 2015-03-05 10:21:52
    Tagged date                              : UTC 2015-03-05 10:21:52
    Text #4
    ID                                       : 7
    Format                                   : Timed text
    Muxing mode                              : sbtl
    Codec ID                                 : tx3g
    Duration                                 : 1h 40mn
    Bit rate mode                            : Variable
    Bit rate                                 : 39 bps
    Stream size                              : 28.8 KiB (0%)
    Language                                 : English
    Encoded date                             : UTC 2015-03-05 10:21:52
    Tagged date                              : UTC 2015-03-05 10:21:52
    Text #5
    ID                                       : 8
    Format                                   : Apple text
    Codec ID                                 : text
    Duration                                 : 1h 41mn
    Bit rate mode                            : Variable
    Bit rate                                 : 0 bps
    Stream size                              : 375 Bytes (0%)
    Language                                 : English
    Encoded date                             : UTC 2015-03-05 10:22:00
    Tagged date                              : UTC 2015-03-05 10:22:00
    Menu
    00:00:00.000                             : Chapter 1
    00:04:57.589                             : Chapter 2
    00:12:21.950                             : Chapter 3
    00:17:07.818                             : Chapter 4
    00:26:25.250                             : Chapter 5
    00:32:40.333                             : Chapter 6
    00:36:24.682                             : Chapter 7
    00:42:16.117                             : Chapter 8
    00:45:33.356                             : Chapter 9
    00:55:02.591                             : Chapter 10
    00:59:27.647                             : Chapter 11
    01:06:13.511                             : Chapter 12
    01:14:15.993                             : Chapter 13
    01:19:13.123                             : Chapter 14
    01:27:29.870                             : Chapter 15
    01:32:24.873                             : Chapter 16

    x264 лог

    x264 [info]: frame I:1295  Avg QP:11.39  size: 75576
    x264 [info]: frame P:34312 Avg QP:14.29  size: 22532
    x264 [info]: frame B:109997 Avg QP:16.26  size:  7255
    x264 [info]: consecutive B-frames:  3.4%  3.4% 12.6% 18.0% 17.2% 32.5% 13.0%
    x264 [info]: mb I  I16..4:  8.4% 72.0% 19.6%
    x264 [info]: mb P  I16..4:  1.8% 10.3%  2.8%  P16..4: 33.1% 26.6% 17.0%  0.0%  0.0%    skip: 8.4%
    x264 [info]: mb B  I16..4:  0.1%  1.3%  0.4%  B16..8: 36.7% 13.9%  3.9%  direct: 4.3%  skip:39.4%  L0:46.7% L1:43.8% BI: 9.6%
    x264 [info]: 8x8 transform intra:69.5% inter:71.2%
    x264 [info]: coded y,uvDC,uvAC intra: 87.0% 86.3% 70.7% inter: 26.7% 23.1% 6.2%
    x264 [info]: i16 v,h,dc,p: 21% 15%  7% 57%
    x264 [info]: i8 v,h,dc,ddl,ddr,vr,hd,vl,hu: 11%  9%  5% 10% 13% 13% 13% 13% 13%
    x264 [info]: i4 v,h,dc,ddl,ddr,vr,hd,vl,hu: 10%  8%  3% 10% 15% 15% 14% 13% 13%
    x264 [info]: i8c dc,h,v,p: 40% 25% 20% 16%
    x264 [info]: Weighted P-Frames: Y:3.7% UV:2.6%
    x264 [info]: ref P L0: 47.6%  6.9% 17.3%  8.1%  6.1%  4.7%  4.0%  2.5%  2.3%  0.5%  0.0%
    x264 [info]: ref B L0: 65.0% 14.8%  8.2%  4.2%  3.3%  2.6%  1.4%  0.5%
    x264 [info]: ref B L1: 89.4% 10.6%
    x264 [info]: kb/s:2198.61

    Скриншоты

    -

    Релиз подготовлен для просмотра на Apple TV, iPad, iPhone, iPod Touch.
    Для просмотра данного релиза на компьютере с ОС Windows рекомендуется использовать VLC media player
    Скачать .torrent

    Скачать торрент-файл бесплатно и на максимальной скорости!

    Как скачивать? · Что такое торрент? · Рейтинг и ограничения

    !ВНИМАНИЕ!
    Сайт не распространяет и не хранит электронные версии произведений, а занимается лишь лишь предоставлением доступа к создаваемому пользователями каталогу ссылок на торрент-файлы, которые содержат только списки хеш-сумм, убедительная просьба с жалобами обращаться напрямую к пользователю. Файлы для обмена на трекере предоставлены пользователями сайта, и администрация не несёт ответственности за их содержание. Просьба не заливать файлы, защищенные авторскими правами, а также файлы нелегального содержания!


    _________________
    [Профиль] [ЛС]
    Показать сообщения:    
    Ответить на тему

    Текущее время: Сегодня, в 12:58

    Часовой пояс: GMT + 2



    Вы не можете начинать темы
    Вы не можете отвечать на сообщения
    Вы не можете редактировать свои сообщения
    Вы не можете удалять свои сообщения
    Вы не можете голосовать в опросах
    Вы не можете прикреплять файлы к сообщениям
    Вы не можете скачивать файлы