BitTorrentTracker PerecTracker.org
BitTorrentTracker PerecTracker.org
    
Регистрация  ·  Вход
 
 · 
Забыли пароль?

  • [iPad] Меч мести / Sword of Vengeance (Jim Weedon / Джим Видон ) [2015, Великобритания, Боевик, WEB-DLRip, SD (576p)] VO + Original + sub (eng)

    Ответить на тему
     
    Автор Сообщение

    rechyn

    Создавать темы 02-Сен-2015 12:54

           

    [Цитировать]

    Меч мести / Sword of Vengeance
    -
    -Год выпуска: 2015
    Страна: Великобритания
    Жанр: Боевик
    Продолжительность: 01:26:53
    Перевод: Любительский (одноголосый) (den904)
    Оригинальная аудиодорожка: Есть
    Cубтитры: Английские
    Режиссёр: Джим Видон
    Сценарий: Julian Unthank, Мэттью Рид
    Продюсер: Руперт Престон, Хуберта Фон Лиэль, Milos Ivosevic
    Оператор: Аугуст Якобссон
    Композитор: Стивен Хилтон
    Художник: Елена Сопич, Стефан Савкович
    Монтаж: Томми Боулдинг
    В ролях: Стэнли Вебер, Эдвард Экрут, Misha Berich, Пит Чеффи, Джанни Джардинелли, Milica Jevtic, Vid Krkeljic, Дэйв Леджено, Nenad Pecinar, Карел Роден
    Мировая премьера: 5 марта 2015
    Описание: После победы в битве при Гастингсе Вильгельм Завоеватель отправил свою армию на север Англии для совершения свирепого разорительного вторжения. Самый грозный полководец короля, граф Дюран, вырезал сто тысяч саксов и разорил их земли. Теперь Дюран правит севером вместе с сыновьями Артусом и Романом. Уцелевшие живут в постоянном страхе. Но загадочный чужестранец вскоре возглавит их восстание.-Качество исходника: WEB-DL 720p
    Качество: WEB-DLRip
    Тип: SD (576p)
    Контейнер: M4V
    Видео: H.264, 1024x432, 2.40:1, 2 200 Kbps, 23.976 fps
    Аудио 1: Русский/Любительский (одноголосый) (den904), AAC / 2.0 / 157 Kbps / 48.0 KHz
    Аудио 2: Английский/Оригинальная дорожка , AAC / 2.0 / 157 Kbps / 48.0 KHz
    Субтитры: Английские полные
    -

    iTunes Meta Tags

    Sort Name: Sword of Vengeance
    XID: Apple:vendor_id:2015-838916
    contentID: 838916
    Screenwriters: Julian Unthank, Мэттью Рид
    Producers: Руперт Престон, Хуберта Фон Лиэль, Milos Ivosevic
    Director: Jim Weedon
    Cast: Стэнли Вебер, Эдвард Экрут, Misha Berich, Пит Чеффи, Джанни Джардинелли, Milica Jevtic, Vid Krkeljic, Дэйв Леджено, Nenad Pecinar, Карел Роден
    Rating: 0
    Long Description: После победы в битве при Гастингсе Вильгельм Завоеватель отправил свою армию на север Англии для совершения свирепого разорительного вторжения. Самый грозный полководец короля, граф Дюран, вырезал сто тысяч саксов и разорил их земли. Теперь Дюран правит севером вместе с сыновьями Артусом и Романом. Уцелевшие живут в постоянном страхе. Но загадочный чужестранец вскоре возглавит их восстание.
    Description:  После победы в битве при Гастингсе Вильгельм Завоеватель отправил свою армию на север Англии для совершения свирепого разорительного вторжения
    Release Date: 2015-03-05T08:00:00Z
    Genre: Action & Adventure
    Artist: Jim Weedon
    Name: Sword of Vengeance

    MediaInfo

    General
    Complete name                            : /Users/imac/HandBrake/Sword.of.Vengeance.(SD).(pk).m4v
    Format                                   : MPEG-4
    Codec ID                                 : M4V
    File size                                : 1.53 GiB
    Duration                                 : 1h 26mn
    Overall bit rate mode                    : Variable
    Overall bit rate                         : 2 519 Kbps
    Movie name                               : Sword of Vengeance
    Performer                                : Jim Weedon
    Genre                                    : Action & Adventure
    Recorded date                            : UTC 2015-03-05 08:00:00
    Encoded date                             : UTC 2015-03-23 09:23:08
    Tagged date                              : UTC 2015-03-23 09:24:47
    Cover                                    : Yes
    sonm                                     : Sword of Vengeance
    desc                                     :  После победы в битве при Гастингсе Вильгельм Завоеватель отправил свою армию на север Англии для совершения свирепого разорительного вторжения
    ldes                                     : После победы в битве при Гастингсе Вильгельм Завоеватель отправил свою армию на север Англии для совершения свирепого разорительного вторжения. Самый грозный полководец короля, граф Дюран, вырезал сто тысяч саксов и разорил их земли. Теперь Дюран правит севером вместе с сыновьями Артусом и Романом. Уцелевшие живут в постоянном страхе. Но загадочный чужестранец вскоре возглавит их восстание.
    stik                                     : 9
    rtng                                     : 0
    cnID                                     : 838916
    xid                                      : Apple:vendor_id:2015-838916
    iTunEXTC                                 : mpaa|Unrated|???|
    iTunMOVI                                 : <?xml version=\"1.0\" encoding=\"UTF-8\"?> / <!DOCTYPE plist PUBLIC \"-//Apple//DTD PLIST 1.0//EN\" \"http://anonym.to/?http://www.apple.com/DTDs/PropertyList-1.0.dtd\"> / <plist version=\"1.0\"> / <dict> /  <key>cast</key> /  <array> /   <dict> /    <key>name</key> /    <string>Стэнли Вебер</string> /   </dict> /   <dict> /    <key>name</key> /    <string>Эдвард Экрут</string> /   </dict> /   <dict> /    <key>name</key> /    <string>Misha Berich</string> /   </dict> /   <dict> /    <key>name</key> /    <string>Пит Чеффи</string> /   </dict> /   <dict> /    <key>name</key> /    <string>Джанни Джардинелли</string> /   </dict> /   <dict> /    <key>name</key> /    <string>Milica Jevtic</string> /   </dict> /   <dict> /    <key>name</key> /    <string>Vid Krkeljic</string> /   </dict> /   <dict> /    <key>name</key> /    <string>Дэйв Леджено</string> /   </dict> /   <dict> /    <key>name</key> /    <string>Nenad Pecinar</string> /   </dict> /   <dict> /    <key>name</key> /    <string>Карел Роден</string> /   </dict> /  </array> /  <key>directors</key> /  <array> /   <dict> /    <key>name</key> /    <string>Jim Weedon</string> /   </dict> /  </array> /  <key>producers</key> /  <array> /   <dict> /    <key>name</key> /    <string>Руперт Престон</string> /   </dict> /   <dict> /    <key>name</key> /    <string>Хуберта Фон Лиэль</string> /   </dict> /   <dict> /    <key>name</key> /    <string>Milos Ivosevic</string> /   </dict> /  </array> /  <key>screenwriters</key> /  <array> /   <dict> /    <key>name</key> /    <string>Julian Unthank</string> /   </dict> /   <dict> /    <key>name</key> /    <string>Мэттью Рид</string> /   </dict> /  </array> / </dict> / </plist>
    Video #1
    ID                                       : 1
    Format                                   : AVC
    Format/Info                              : Advanced Video Codec
    Format profile                           : High@L3.1
    Format settings, CABAC                   : Yes
    Format settings, ReFrames                : 9 frames
    Codec ID                                 : avc1
    Codec ID/Info                            : Advanced Video Coding
    Duration                                 : 1h 26mn
    Bit rate mode                            : Variable
    Bit rate                                 : 2 200 Kbps
    Width                                    : 1 024 pixels
    Height                                   : 432 pixels
    Display aspect ratio                     : 2.40:1
    Frame rate mode                          : Variable
    Frame rate                               : 23.976 fps
    Minimum frame rate                       : 22.727 fps
    Maximum frame rate                       : 24.390 fps
    Color space                              : YUV
    Chroma subsampling                       : 4:2:0
    Bit depth                                : 8 bits
    Scan type                                : Progressive
    Bits/(Pixel*Frame)                       : 0.207
    Stream size                              : 1.33 GiB (87%)
    Writing library                          : x264 core 142 r2479 dd79a61
    Encoding settings                        : cabac=1 / ref=9 / deblock=1:0:0 / analyse=0x3:0x113 / me=umh / subme=9 / psy=1 / psy_rd=1.00:0.00 / mixed_ref=1 / me_range=32 / chroma_me=1 / trellis=1 / 8x8dct=1 / cqm=0 / deadzone=21,11 / fast_pskip=1 / chroma_qp_offset=-2 / threads=12 / lookahead_threads=1 / sliced_threads=0 / nr=0 / decimate=1 / interlaced=0 / bluray_compat=0 / constrained_intra=0 / bframes=6 / b_pyramid=2 / b_adapt=2 / b_bias=0 / direct=1 / weightb=1 / open_gop=0 / weightp=2 / keyint=240 / keyint_min=24 / scenecut=40 / intra_refresh=0 / rc_lookahead=40 / rc=2pass / mbtree=1 / bitrate=2200 / ratetol=1.0 / qcomp=0.60 / qpmin=0 / qpmax=69 / qpstep=4 / cplxblur=20.0 / qblur=0.5 / ip_ratio=1.40 / aq=1:1.00
    Language                                 : English
    Encoded date                             : UTC 2015-03-23 09:23:08
    Tagged date                              : UTC 2015-03-23 09:23:30
    Color primaries                          : BT.709-5, BT.1361, IEC 61966-2-4, SMPTE RP177
    Transfer characteristics                 : BT.709-5, BT.1361
    Matrix coefficients                      : BT.709-5, BT.1361, IEC 61966-2-4 709, SMPTE RP177
    Video #2
    ID                                       : 6
    Format                                   : JPEG
    Codec ID                                 : jpeg
    Duration                                 : 1h 26mn
    Bit rate mode                            : Variable
    Bit rate                                 : 498 bps
    Width                                    : 640 pixels
    Height                                   : 270 pixels
    Display aspect ratio                     : 2.40:1
    Frame rate mode                          : Variable
    Frame rate                               : 0.002 fps
    Minimum frame rate                       : 0.001 fps
    Maximum frame rate                       : 0.004 fps
    Color space                              : YUV
    Chroma subsampling                       : 4:2:0
    Bit depth                                : 8 bits
    Compression mode                         : Lossy
    Bits/(Pixel*Frame)                       : 1.441
    Stream size                              : 304 KiB (0%)
    Language                                 : English
    Encoded date                             : UTC 2015-03-23 09:23:32
    Tagged date                              : UTC 2015-03-23 09:23:33
    Audio #1
    ID                                       : 2
    Format                                   : AAC
    Format/Info                              : Advanced Audio Codec
    Format profile                           : LC
    Codec ID                                 : 40
    Duration                                 : 1h 26mn
    Bit rate mode                            : Variable
    Bit rate                                 : 157 Kbps
    Maximum bit rate                         : 248 Kbps
    Channel(s)                               : 2 channels
    Channel positions                        : Front: L R
    Sampling rate                            : 48.0 KHz
    Compression mode                         : Lossy
    Stream size                              : 97.5 MiB (6%)
    Language                                 : Russian
    Encoded date                             : UTC 2015-03-23 09:23:08
    Tagged date                              : UTC 2015-03-23 09:23:27
    Audio #2
    ID                                       : 3
    Format                                   : AAC
    Format/Info                              : Advanced Audio Codec
    Format profile                           : LC
    Codec ID                                 : 40
    Duration                                 : 1h 26mn
    Bit rate mode                            : Variable
    Bit rate                                 : 157 Kbps
    Maximum bit rate                         : 228 Kbps
    Channel(s)                               : 2 channels
    Channel positions                        : Front: L R
    Sampling rate                            : 48.0 KHz
    Compression mode                         : Lossy
    Stream size                              : 97.4 MiB (6%)
    Language                                 : English
    Encoded date                             : UTC 2015-03-23 09:23:08
    Tagged date                              : UTC 2015-03-23 09:23:28
    Text #1
    ID                                       : 4
    Format                                   : Timed text
    Muxing mode                              : sbtl
    Codec ID                                 : tx3g
    Duration                                 : 1h 19mn
    Bit rate mode                            : Variable
    Bit rate                                 : 16 bps
    Stream size                              : 9.22 KiB (0%)
    Language                                 : English
    Encoded date                             : UTC 2015-03-23 09:23:08
    Tagged date                              : UTC 2015-03-23 09:23:08
    Text #2
    ID                                       : 5
    Format                                   : Apple text
    Codec ID                                 : text
    Duration                                 : 1h 26mn
    Bit rate mode                            : Variable
    Bit rate                                 : 0 bps
    Stream size                              : 231 Bytes (0%)
    Language                                 : English
    Encoded date                             : UTC 2015-03-23 09:23:30
    Tagged date                              : UTC 2015-03-23 09:23:30
    Menu
    00:00:00.000                             : Chapter 1
    00:08:54.117                             : Chapter 2
    00:24:03.110                             : Chapter 3
    00:29:58.090                             : Chapter 4
    00:39:40.130                             : Chapter 5
    00:49:42.148                             : Chapter 6
    00:58:45.108                             : Chapter 7
    01:07:09.111                             : Chapter 8
    01:15:18.101                             : Chapter 9
    01:22:42.128                             : Chapter 10

    x264 лог

    x264 [info]: frame I:1098  Avg QP:13.96  size: 56455
    x264 [info]: frame P:38370 Avg QP:17.23  size: 20551
    x264 [info]: frame B:85524 Avg QP:18.85  size:  6805
    x264 [info]: consecutive B-frames:  5.8%  9.2% 14.1% 54.0%  7.6%  6.1%  3.3%
    x264 [info]: mb I  I16..4: 11.6% 63.6% 24.8%
    x264 [info]: mb P  I16..4:  1.8% 13.4%  3.8%  P16..4: 35.1% 24.5% 12.7%  0.0%  0.0%    skip: 8.6%
    x264 [info]: mb B  I16..4:  0.2%  1.6%  0.7%  B16..8: 39.5% 12.3%  3.1%  direct: 5.2%  skip:37.4%  L0:38.0% L1:50.6% BI:11.3%
    x264 [info]: 8x8 transform intra:68.9% inter:66.1%
    x264 [info]: coded y,uvDC,uvAC intra: 87.2% 42.5% 13.7% inter: 29.3% 10.3% 0.2%
    x264 [info]: i16 v,h,dc,p: 21% 10%  8% 61%
    x264 [info]: i8 v,h,dc,ddl,ddr,vr,hd,vl,hu:  9%  6%  4% 10% 15% 15% 14% 13% 13%
    x264 [info]: i4 v,h,dc,ddl,ddr,vr,hd,vl,hu:  9%  6%  3% 10% 16% 16% 14% 13% 14%
    x264 [info]: i8c dc,h,v,p: 53% 24% 16%  7%
    x264 [info]: Weighted P-Frames: Y:5.6% UV:2.1%
    x264 [info]: ref P L0: 56.0% 11.8% 14.0%  5.4%  3.9%  2.9%  2.5%  1.5%  1.5%  0.4%  0.0%
    x264 [info]: ref B L0: 81.6%  8.6%  3.9%  1.9%  1.6%  1.2%  0.9%  0.3%
    x264 [info]: ref B L1: 95.2%  4.8%
    x264 [info]: kb/s:2198.22

    Скриншоты

    -

    Релиз подготовлен для просмотра на Apple TV, iPad, iPhone, iPod Touch.
    Для просмотра данного релиза на компьютере с ОС Windows рекомендуется использовать VLC media player
    Скачать .torrent

    Скачать торрент-файл бесплатно и на максимальной скорости!

    Как скачивать? · Что такое торрент? · Рейтинг и ограничения

    !ВНИМАНИЕ!
    Сайт не распространяет и не хранит электронные версии произведений, а занимается лишь лишь предоставлением доступа к создаваемому пользователями каталогу ссылок на торрент-файлы, которые содержат только списки хеш-сумм, убедительная просьба с жалобами обращаться напрямую к пользователю. Файлы для обмена на трекере предоставлены пользователями сайта, и администрация не несёт ответственности за их содержание. Просьба не заливать файлы, защищенные авторскими правами, а также файлы нелегального содержания!


    _________________
    [Профиль] [ЛС]
    Показать сообщения:    
    Ответить на тему

    Текущее время: Сегодня, в 12:09

    Часовой пояс: GMT + 2



    Вы не можете начинать темы
    Вы не можете отвечать на сообщения
    Вы не можете редактировать свои сообщения
    Вы не можете удалять свои сообщения
    Вы не можете голосовать в опросах
    Вы не можете прикреплять файлы к сообщениям
    Вы не можете скачивать файлы