BitTorrentTracker PerecTracker.org
BitTorrentTracker PerecTracker.org
    
Регистрация  ·  Вход
 
 · 
Забыли пароль?

  • Газетчик / The Paperboy (Ли Дэниелс / Lee Daniels) [2012, США, триллер, BDRip-AVC] Dub |НТВ+|

    Ответить на тему
     
    Автор Сообщение

    rechyn

    Создавать темы 09-Июн-2013 19:59

           

    [Цитировать]

    Газетчик / The Paperboy-Страна: США
    Жанр: триллер
    Год выпуска: 2012
    Продолжительность: 01:46:45
    Перевод: Профессиональный (дублированный) |НТВ+|
    Cубтитры: нет-Режиссер: Ли Дэниелс / Lee Daniels
    Сценарий Питер Декстер, Ли Дэниелс
    Продюсер Эд Кэйтелл III, Ли Дэниелс, Кассиан Элвис-Бюджет: $12 500 000
    Сборы в США: $693 286
    Сборы в мире: + $660 582 = $1 353 868
    Сборы в России: $147 871
    Премьера (мир): 24 мая 2012, ...
    Премьера (РФ): 1 ноября 2012, «Наше Кино»
    - лицам до 17 лет обязательно присутствие взрослого
    -В ролях: Мэттью МакКонахи, Зак Эфрон, Николь Кидман, Джон Кьюсак, Мейси Грэй, Дэвид Ойелоуо, Скотт Гленн, Нед Беллами, Ниалла Гордон, Эдрик Браун-Описание: Конец 1960-х; успешный журналист Уорд расследует дерзкое убийство влиятельного шерифа-расиста в маленьком южном городке. Его цель — освободить несправедливо осуждённого и заодно сделать вместе с коллегой из Лондона сенсационный материал. Журналистам помогает юный разносчик газет Джек — родной брат Уорда, и невероятно сексапильная блондинка Шарлотта: она влюбилась по переписке в того самого заключенного из камеры смертников. Каждому из героев есть что скрывать и чего бояться — но раскалённый воздух Юга пробуждает самые тёмные и горячие желания…-Релиз от: -Автор рипа: Yarmak23-Качество видео: BDRip-AVC |исходник: BDRemux -|
    Формат видео: MKV
    Видео: 1024x426 (2.40:1), 23.976 fps, H.264 ~1749 kbps avg, 0.167 bit/pixel
    Аудио: 48 kHz, AC3 Dolby Digital, 2/0 (L,R) ch, 192 kbps Constant |Дубляж, НТВ+|
    -

    MI

    General
    Complete name : Gazetchik.2012.D.BDRip.1.45GB_by_Yarmak23.mkv
    Format : Matroska
    Format version : Version 2
    File size : 1.45 GiB
    Duration : 1h 46mn
    Overall bit rate : 1 941 Kbps
    Encoded date : UTC 2013-06-09 06:38:02
    Writing application : mkvmerge v4.3.0 ('Escape from the Island') сборка от Sep 5 2010 10:30:51
    Writing library : libebml v1.0.0 + libmatroska v1.0.0
    Video
    ID : 1
    Format : AVC
    Format/Info : Advanced Video Codec
    Format profile : High@L4.1
    Format settings, CABAC : Yes
    Format settings, ReFrames : 11 frames
    Codec ID : V_MPEG4/ISO/AVC
    Duration : 1h 46mn
    Bit rate : 1 749 Kbps
    Width : 1 024 pixels
    Height : 426 pixels
    Display aspect ratio : 2.40:1
    Frame rate mode : Constant
    Frame rate : 23.976 fps
    Color space : YUV
    Chroma subsampling : 4:2:0
    Bit depth : 8 bits
    Scan type : Progressive
    Bits/(Pixel*Frame) : 0.167
    Stream size : 1.28 GiB (88%)
    Writing library : x264 core 125 r2208 d9d2288
    Encoding settings : cabac=1 / ref=11 / deblock=1:-2:-1 / analyse=0x3:0x113 / me=umh / subme=9 / psy=1 / psy_rd=1.00:0.10 / mixed_ref=1 / me_range=32 / chroma_me=1 / trellis=1 / 8x8dct=1 / cqm=0 / deadzone=21,11 / fast_pskip=0 / chroma_qp_offset=-3 / threads=3 / lookahead_threads=1 / sliced_threads=0 / nr=0 / decimate=1 / interlaced=0 / bluray_compat=0 / constrained_intra=0 / bframes=10 / b_pyramid=2 / b_adapt=1 / b_bias=0 / direct=3 / weightb=1 / open_gop=0 / weightp=2 / keyint=240 / keyint_min=23 / scenecut=40 / intra_refresh=0 / rc_lookahead=60 / rc=2pass / mbtree=1 / bitrate=1749 / ratetol=1.0 / qcomp=0.60 / qpmin=0 / qpmax=69 / qpstep=4 / cplxblur=20.0 / qblur=0.5 / ip_ratio=1.40 / aq=1:1.00
    Default : Yes
    Forced : No
    Audio
    ID : 2
    Format : AC-3
    Format/Info : Audio Coding 3
    Mode extension : CM (complete main)
    Format settings, Endianness : Big
    Codec ID : A_AC3
    Duration : 1h 46mn
    Bit rate mode : Constant
    Bit rate : 192 Kbps
    Channel(s) : 2 channels
    Channel positions : Front: L R
    Sampling rate : 48.0 KHz
    Bit depth : 16 bits
    Compression mode : Lossy
    Stream size : 147 MiB (10%)
    Language : Russian
    Default : Yes
    Forced : No

    Скриншоты


    Цитата:

    • Тоби Магуайр был приглашен на роль Уорда, но отказался из-за несогласованности расписаний съемок.
    • Алексу Петтиферу была первому предложена роль Джека.
    • Роль Шарлотты, которую исполняет Николь Кидман, могла достаться Софии Вергаре.
    • 2 мая 2012 года было официально объявлено, что главная музыкальная тема фильма была записана певицей Мэрайей Кэри и называется «Mesmerized».
    • Педро Альмодовар некоторое время возглавлял этот проект и серьезно задумывался о том, чтобы сделать из него свой первый фильм на английском языке. В конце концов, он отказался, но как утверждают, он участвовал в ранних версиях сценария.
    Скачать .torrent

    Скачать торрент-файл бесплатно и на максимальной скорости!

    Как скачивать? · Что такое торрент? · Рейтинг и ограничения

    !ВНИМАНИЕ!
    Сайт не распространяет и не хранит электронные версии произведений, а занимается лишь лишь предоставлением доступа к создаваемому пользователями каталогу ссылок на торрент-файлы, которые содержат только списки хеш-сумм, убедительная просьба с жалобами обращаться напрямую к пользователю. Файлы для обмена на трекере предоставлены пользователями сайта, и администрация не несёт ответственности за их содержание. Просьба не заливать файлы, защищенные авторскими правами, а также файлы нелегального содержания!


    _________________
    [Профиль] [ЛС]
    Показать сообщения:    
    Ответить на тему

    Текущее время: Сегодня, в 14:34

    Часовой пояс: GMT + 2



    Вы не можете начинать темы
    Вы не можете отвечать на сообщения
    Вы не можете редактировать свои сообщения
    Вы не можете удалять свои сообщения
    Вы не можете голосовать в опросах
    Вы не можете прикреплять файлы к сообщениям
    Вы не можете скачивать файлы