BitTorrentTracker PerecTracker.org
BitTorrentTracker PerecTracker.org
    
Регистрация  ·  Вход
 
 · 
Забыли пароль?

  • Астрал / Insidious (Джеймс Ван / James Wan) [2010, США, ужасы, триллер, BDRip] DUB (R5)

    Ответить на тему
     
    Автор Сообщение

    -sasha2006

    Создавать темы 22-Апр-2011 17:18

           

    [Цитировать]

    Астрал / Insidious«Это не дом населён призраками...»--Год выпуска: 2010
    Страна: США
    Киностудия: Automatik Entertainment, Blumhouse Productions
    Жанр: ужасы, триллер
    Продолжительность: 01:38:11
    Перевод: Профессиональный (дублированный) лицензия
    Cубтитры: нет--Режиссер: Джеймс Ван / James Wan
    Продюссер: Джейсон Блум, Орен Пели, Стивен Шнайдер
    Сценарий: Ли Уоннелл--Бюджет: $1 000 000
    Премьера в Мире: 31 марта 2011
    Премьера в РФ: 1 апреля 2011, «Top Film Distribution»
    Сборы в РФ: $3 891 243
    PG-13 - Детям до 13 лет просмотр не желателен
    --В ролях: Патрик Уилсон, Роуз Бирн, Ти Кигэн Симпкинс, Эндрю Эстор, Лин Шэй, Ли Уоннелл, Энгус Сэмпсон, Барбара Херши, Корбетт Так, Хезер Токуини...
    Роли дублировали: Евгений Пашин, Екатерина Брайковская, Татьяна Антонова, Ольга Радчук, Андрей Фединчик--Описание: Джош и Ринэй переезжают со своими детьми в новый дом, но не успевают толком распаковать вещи, как начинаются странные события. Необъяснимо перемещаются предметы, в детской звучат странные звуки… Но в настоящий ужас приходят родители, когда их десятилетний сын Далтон впадает в кому. Все усилия врачей в больнице помочь мальчику безуспешны.
    Несколько месяцев спустя его возвращают домой, где за несчастным ребенком ухаживают мать и сиделка. Но загадочные явления в доме продолжаются. Отчаявшиеся родители готовы обратиться за помощью к кому угодно и вскоре выясняется, что Далтон в бессознательном состоянии связан с паранормальным миром...--Качество видео: BDRip, источник: Bluray 1080p ///СОВМЕСТИМО С БЫТОВЫМИ ПЛЕЕРАМИ///
    Формат видео: AVI
    Видео кодек: XviD
    Аудио кодек: AC3
    Видео: 720x304 (2.35:1), 25.000 fps, XVID ~1520 kbps avg, 0.317 bit/pixel
    Аудио: 48 kHz, AC3, 6 ch, 384.00 kbps Constant

    Скриншоты

    MediaInfo

    General
    Complete name : D:\Закачки\Видео\Astral.2010.D.BDRip.avi
    Format : AVI
    Format/Info : Audio Video Interleave
    File size : 1.37 GiB
    Duration : 1h 42mn
    Overall bit rate : 1 914 Kbps
    Writing application : VirtualDubMod 1.5.4.1 (build 2178/release)
    Writing library : VirtualDubMod build 2178/release
    Video
    ID : 0
    Format : MPEG-4 Visual
    Format profile : Advanced Simple@L5
    Format settings, BVOP : 2
    Format settings, QPel : No
    Format settings, GMC : No warppoints
    Format settings, Matrix : Custom
    Codec ID : XVID
    Codec ID/Hint : XviD
    Duration : 1h 42mn
    Bit rate : 1 520 Kbps
    Width : 720 pixels
    Height : 304 pixels
    Display aspect ratio : 2.35:1
    Frame rate : 23.976 fps
    Color space : YUV
    Chroma subsampling : 4:2:0
    Bit depth : 8 bits
    Scan type : Progressive
    Compression mode : Lossy
    Bits/(Pixel*Frame) : 0.290
    Stream size : 1.09 GiB (79%)
    Writing library : XviD 58
    Audio
    ID : 1
    Format : AC-3
    Format/Info : Audio Coding 3
    Mode extension : CM (complete main)
    Codec ID : 2000
    Duration : 1h 42mn
    Bit rate mode : Constant
    Bit rate : 384 Kbps
    Channel(s) : 6 channels
    Channel positions : Front: L C R, Side: L R, LFE
    Sampling rate : 48.0 KHz
    Bit depth : 16 bits
    Compression mode : Lossy
    Stream size : 281 MiB (20%)
    Alignment : Split accross interleaves
    Interleave, duration : 42 ms (1.00 video frame)
    Interleave, preload duration : 500 ms
    Скачать .torrent

    Скачать торрент-файл бесплатно и на максимальной скорости!

    Как скачивать? · Что такое торрент? · Рейтинг и ограничения

    !ВНИМАНИЕ!
    Сайт не распространяет и не хранит электронные версии произведений, а занимается лишь лишь предоставлением доступа к создаваемому пользователями каталогу ссылок на торрент-файлы, которые содержат только списки хеш-сумм, убедительная просьба с жалобами обращаться напрямую к пользователю. Файлы для обмена на трекере предоставлены пользователями сайта, и администрация не несёт ответственности за их содержание. Просьба не заливать файлы, защищенные авторскими правами, а также файлы нелегального содержания!


    _________________

    ░▒▓█▀▄▀▄▀▄█▓▒░


    Последний раз редактировалось: -sasha2006 (2013-02-09 12:44), всего редактировалось 4 раз(а)
    [Профиль] [ЛС]

    -sasha2006 ®

    Создавать темы 22-Апр-2011 17:24 (спустя 5 минут)

           

    [Цитировать]


    _________________

    ░▒▓█▀▄▀▄▀▄█▓▒░
    [Профиль] [ЛС]
    Показать сообщения:    
    Ответить на тему

    Текущее время: Сегодня, в 14:28

    Часовой пояс: GMT + 2



    Вы не можете начинать темы
    Вы не можете отвечать на сообщения
    Вы не можете редактировать свои сообщения
    Вы не можете удалять свои сообщения
    Вы не можете голосовать в опросах
    Вы не можете прикреплять файлы к сообщениям
    Вы не можете скачивать файлы