BitTorrentTracker PerecTracker.org
BitTorrentTracker PerecTracker.org
    
Регистрация  ·  Вход
 
 · 
Забыли пароль?

  • [iPad] Торговля кожей / Skin Traffik (Ара Пайая / Ara Paiaya ) [2015, Великобритания, Боевик, криминал, HDRip, SD (576p)] DVO + Original

    Ответить на тему
     
    Автор Сообщение

    rechyn

    Создавать темы 02-Сен-2015 12:54

           

    [Цитировать]

    Торговля кожей / Skin Traffik
    «Because some people, just need killing»
    -Год выпуска: 2015
    Страна: Великобритания
    Жанр: Боевик, криминал
    Продолжительность: 01:33:23
    Перевод: Любительский (двухголосый закадровый) (ColdFilm)
    Оригинальная аудиодорожка: Есть
    Режиссёр: Ара Пайая
    Сценарий: Adam Davidson, Ара Пайая
    Продюсер: Derek Chappell, Ара Пайая, Бруно Розато
    Оператор: Ара Пайая
    Композитор: Sefi Carmel
    Художник: Steve Samson
    Монтаж: Ара Пайая
    В ролях: Гэри Дэниелс, Микки Рурк, Эрик Робертс, Дэрил Ханна, Майкл Мэдсен, Доминик Суэйн, Алан Форд, Джефф Фэйи, Челси Ли, Рон Смуренбург
    Мировая премьера: 29 ноября 2015
    Описание: Измученный киллер пытается восстановить свою человечность в жестоком преступном мире, выживание в котором является скорее инстинктом, нежели мастерством.-Качество исходника: BDRip 1080p
    Качество: HDRip
    Тип: SD (576p)
    Контейнер: M4V
    Видео: H.264, 1024x432, 2.40:1, 2 200 Kbps, 23.976 fps
    Аудио 1: Русский/Любительский (двухголосый закадровый) , AAC / 2.0 / 144 Kbps / 48.0 KHz
    Аудио 2: Английский/Оригинальная дорожка , AAC / 2.0 / 157 Kbps / 48.0 KHz
    -

    iTunes Meta Tags

    Sort Name: Skin Traffik
    XID: Apple:vendor_id:2015-789022
    contentID: 789022
    Screenwriters: Adam Davidson, Ара Пайая
    Producers: Derek Chappell, Ара Пайая, Бруно Розато
    Director: Ара Пайая
    Cast: Гэри Дэниелс, Микки Рурк, Эрик Робертс, Дэрил Ханна, Майкл Мэдсен, Доминик Суэйн, Алан Форд, Джефф Фэйи, Челси Ли, Рон Смуренбург
    Long Description: Измученный киллер пытается восстановить свою человечность в жестоком преступном мире, выживание в котором является скорее инстинктом, нежели мастерством.
    Description: Измученный киллер пытается восстановить свою человечность в жестоком преступном мире, выживание в котором является скорее инстинктом, нежели мастерством.
    Release Date: 2015-11-29T08:00:00Z
    Genre: Triller
    Artist: Ara Paiaya
    Name: Skin Traffik

    MediaInfo

    General
    Complete name                            : /Users/imac/HandBrake/Skin.Traffik.(SD).(pk).m4v
    Format                                   : MPEG-4
    Codec ID                                 : M4V
    File size                                : 1.64 GiB
    Duration                                 : 1h 33mn
    Overall bit rate mode                    : Variable
    Overall bit rate                         : 2 510 Kbps
    Movie name                               : Skin Traffik
    Performer                                : Ara Paiaya
    Genre                                    : Triller
    Recorded date                            : UTC 2015-11-29 08:00:00
    Encoded date                             : UTC 2015-04-06 21:03:07
    Tagged date                              : UTC 2015-04-06 21:04:39
    Cover                                    : Yes
    sonm                                     : Skin Traffik
    desc                                     : Измученный киллер пытается восстановить свою человечность в жестоком преступном мире, выживание в котором является скорее инстинктом, нежели мастерством.
    ldes                                     : Измученный киллер пытается восстановить свою человечность в жестоком преступном мире, выживание в котором является скорее инстинктом, нежели мастерством.
    stik                                     : 9
    rtng                                     : 0
    cnID                                     : 789022
    xid                                      : Apple:vendor_id:2015-789022
    iTunMOVI                                 : <?xml version=\"1.0\" encoding=\"UTF-8\"?> / <!DOCTYPE plist PUBLIC \"-//Apple//DTD PLIST 1.0//EN\" \"http://anonym.to/?http://www.apple.com/DTDs/PropertyList-1.0.dtd\"> / <plist version=\"1.0\"> / <dict> /  <key>cast</key> /  <array> /   <dict> /    <key>name</key> /    <string>Гэри Дэниелс</string> /   </dict> /   <dict> /    <key>name</key> /    <string>Микки Рурк</string> /   </dict> /   <dict> /    <key>name</key> /    <string>Эрик Робертс</string> /   </dict> /   <dict> /    <key>name</key> /    <string>Дэрил Ханна</string> /   </dict> /   <dict> /    <key>name</key> /    <string>Майкл Мэдсен</string> /   </dict> /   <dict> /    <key>name</key> /    <string>Доминик Суэйн</string> /   </dict> /   <dict> /    <key>name</key> /    <string>Алан Форд</string> /   </dict> /   <dict> /    <key>name</key> /    <string>Джефф Фэйи</string> /   </dict> /   <dict> /    <key>name</key> /    <string>Челси Ли</string> /   </dict> /   <dict> /    <key>name</key> /    <string>Рон Смуренбург</string> /   </dict> /  </array> /  <key>directors</key> /  <array> /   <dict> /    <key>name</key> /    <string>Ара Пайая</string> /   </dict> /  </array> /  <key>producers</key> /  <array> /   <dict> /    <key>name</key> /    <string>Derek Chappell</string> /   </dict> /   <dict> /    <key>name</key> /    <string>Ара Пайая</string> /   </dict> /   <dict> /    <key>name</key> /    <string>Бруно Розато</string> /   </dict> /  </array> /  <key>screenwriters</key> /  <array> /   <dict> /    <key>name</key> /    <string>Adam Davidson</string> /   </dict> /   <dict> /    <key>name</key> /    <string>Ара Пайая</string> /   </dict> /  </array> / </dict> / </plist>
    Video #1
    ID                                       : 1
    Format                                   : AVC
    Format/Info                              : Advanced Video Codec
    Format profile                           : High@L3.1
    Format settings, CABAC                   : Yes
    Format settings, ReFrames                : 9 frames
    Codec ID                                 : avc1
    Codec ID/Info                            : Advanced Video Coding
    Duration                                 : 1h 33mn
    Bit rate mode                            : Variable
    Bit rate                                 : 2 200 Kbps
    Width                                    : 1 024 pixels
    Height                                   : 432 pixels
    Display aspect ratio                     : 2.40:1
    Frame rate mode                          : Variable
    Frame rate                               : 23.976 fps
    Minimum frame rate                       : 8.333 fps
    Maximum frame rate                       : 25.000 fps
    Color space                              : YUV
    Chroma subsampling                       : 4:2:0
    Bit depth                                : 8 bits
    Scan type                                : Progressive
    Bits/(Pixel*Frame)                       : 0.207
    Stream size                              : 1.44 GiB (88%)
    Writing library                          : x264 core 142 r2479 dd79a61
    Encoding settings                        : cabac=1 / ref=9 / deblock=1:0:0 / analyse=0x3:0x113 / me=umh / subme=9 / psy=1 / psy_rd=1.00:0.00 / mixed_ref=1 / me_range=32 / chroma_me=1 / trellis=1 / 8x8dct=1 / cqm=0 / deadzone=21,11 / fast_pskip=1 / chroma_qp_offset=-2 / threads=12 / lookahead_threads=1 / sliced_threads=0 / nr=0 / decimate=1 / interlaced=0 / bluray_compat=0 / constrained_intra=0 / bframes=6 / b_pyramid=2 / b_adapt=2 / b_bias=0 / direct=1 / weightb=1 / open_gop=0 / weightp=2 / keyint=240 / keyint_min=24 / scenecut=40 / intra_refresh=0 / rc_lookahead=40 / rc=2pass / mbtree=1 / bitrate=2200 / ratetol=1.0 / qcomp=0.60 / qpmin=0 / qpmax=69 / qpstep=4 / cplxblur=20.0 / qblur=0.5 / ip_ratio=1.40 / aq=1:1.00
    Language                                 : English
    Encoded date                             : UTC 2015-04-06 21:03:07
    Tagged date                              : UTC 2015-04-06 21:03:14
    Color primaries                          : BT.709-5, BT.1361, IEC 61966-2-4, SMPTE RP177
    Transfer characteristics                 : BT.709-5, BT.1361
    Matrix coefficients                      : BT.709-5, BT.1361, IEC 61966-2-4 709, SMPTE RP177
    Video #2
    ID                                       : 5
    Format                                   : JPEG
    Codec ID                                 : jpeg
    Duration                                 : 1h 33mn
    Bit rate mode                            : Variable
    Bit rate                                 : 538 bps
    Width                                    : 640 pixels
    Height                                   : 270 pixels
    Display aspect ratio                     : 2.40:1
    Frame rate mode                          : Variable
    Frame rate                               : 0.002 fps
    Minimum frame rate                       : 0.001 fps
    Maximum frame rate                       : 0.117 fps
    Color space                              : YUV
    Chroma subsampling                       : 4:2:0
    Bit depth                                : 8 bits
    Compression mode                         : Lossy
    Bits/(Pixel*Frame)                       : 1.557
    Stream size                              : 295 KiB (0%)
    Language                                 : English
    Encoded date                             : UTC 2015-04-06 21:03:18
    Tagged date                              : UTC 2015-04-06 21:03:18
    Audio #1
    ID                                       : 2
    Format                                   : AAC
    Format/Info                              : Advanced Audio Codec
    Format profile                           : LC
    Codec ID                                 : 40
    Duration                                 : 1h 33mn
    Bit rate mode                            : Variable
    Bit rate                                 : 144 Kbps
    Maximum bit rate                         : 170 Kbps
    Channel(s)                               : 2 channels
    Channel positions                        : Front: L R
    Sampling rate                            : 48.0 KHz
    Compression mode                         : Lossy
    Stream size                              : 97.1 MiB (6%)
    Language                                 : Russian
    Encoded date                             : UTC 2015-04-06 21:03:07
    Tagged date                              : UTC 2015-04-06 21:03:16
    Audio #2
    ID                                       : 3
    Format                                   : AAC
    Format/Info                              : Advanced Audio Codec
    Format profile                           : LC
    Codec ID                                 : 40
    Duration                                 : 1h 33mn
    Bit rate mode                            : Variable
    Bit rate                                 : 157 Kbps
    Maximum bit rate                         : 231 Kbps
    Channel(s)                               : 2 channels
    Channel positions                        : Front: L R
    Sampling rate                            : 48.0 KHz
    Compression mode                         : Lossy
    Stream size                              : 105 MiB (6%)
    Language                                 : English
    Encoded date                             : UTC 2015-04-06 21:03:07
    Tagged date                              : UTC 2015-04-06 21:03:16
    Text
    ID                                       : 4
    Format                                   : Apple text
    Codec ID                                 : text
    Duration                                 : 1h 33mn
    Bit rate mode                            : Constant
    Bit rate                                 : 0 bps
    Stream size                              : 207 Bytes (0%)
    Language                                 : English
    Encoded date                             : UTC 2015-04-06 21:03:16
    Tagged date                              : UTC 2015-04-06 21:03:16
    Menu
    00:00:00.000                             : Chapter 1
    00:00:08.543                             : Chapter 2
    00:11:48.034                             : Chapter 3
    00:23:27.441                             : Chapter 4
    00:35:06.473                             : Chapter 5
    00:46:46.046                             : Chapter 6
    00:58:25.287                             : Chapter 7
    01:10:04.569                             : Chapter 8
    01:21:43.850                             : Chapter 9

    x264 лог

    x264 [info]: frame I:1567  Avg QP:11.53  size: 69000
    x264 [info]: frame P:38578 Avg QP:14.34  size: 22467
    x264 [info]: frame B:94205 Avg QP:17.90  size:  6013
    x264 [info]: consecutive B-frames:  5.4%  7.6% 12.9% 43.1% 15.4% 12.2%  3.4%
    x264 [info]: mb I  I16..4: 10.9% 58.1% 30.9%
    x264 [info]: mb P  I16..4:  3.5% 15.2%  4.9%  P16..4: 27.6% 21.7% 13.2%  0.0%  0.0%    skip:13.9%
    x264 [info]: mb B  I16..4:  0.4%  1.7%  0.6%  B16..8: 32.7% 11.8%  3.4%  direct: 5.0%  skip:44.4%  L0:36.9% L1:44.9% BI:18.2%
    x264 [info]: 8x8 transform intra:63.3% inter:62.1%
    x264 [info]: coded y,uvDC,uvAC intra: 75.7% 72.9% 51.0% inter: 24.4% 20.0% 2.9%
    x264 [info]: i16 v,h,dc,p: 44% 13%  5% 38%
    x264 [info]: i8 v,h,dc,ddl,ddr,vr,hd,vl,hu: 16% 12% 12%  7%  9% 11% 10% 11% 12%
    x264 [info]: i4 v,h,dc,ddl,ddr,vr,hd,vl,hu: 14% 11%  7%  8% 13% 13% 12% 10% 12%
    x264 [info]: i8c dc,h,v,p: 43% 25% 21% 11%
    x264 [info]: Weighted P-Frames: Y:5.3% UV:1.3%
    x264 [info]: ref P L0: 58.2% 12.1% 14.8%  4.6%  3.3%  2.3%  1.9%  1.2%  1.3%  0.3%  0.0%
    x264 [info]: ref B L0: 86.8%  8.0%  2.5%  1.0%  0.7%  0.5%  0.3%  0.2%
    x264 [info]: ref B L1: 95.3%  4.7%
    x264 [info]: kb/s:2200.49

    Скриншоты

    -

    Релиз подготовлен для просмотра на Apple TV, iPad, iPhone, iPod Touch.
    Для просмотра данного релиза на компьютере с ОС Windows рекомендуется использовать VLC media player
    Скачать .torrent

    Скачать торрент-файл бесплатно и на максимальной скорости!

    Как скачивать? · Что такое торрент? · Рейтинг и ограничения

    !ВНИМАНИЕ!
    Сайт не распространяет и не хранит электронные версии произведений, а занимается лишь лишь предоставлением доступа к создаваемому пользователями каталогу ссылок на торрент-файлы, которые содержат только списки хеш-сумм, убедительная просьба с жалобами обращаться напрямую к пользователю. Файлы для обмена на трекере предоставлены пользователями сайта, и администрация не несёт ответственности за их содержание. Просьба не заливать файлы, защищенные авторскими правами, а также файлы нелегального содержания!


    _________________
    [Профиль] [ЛС]
    Показать сообщения:    
    Ответить на тему

    Текущее время: Сегодня, в 06:58

    Часовой пояс: GMT + 2



    Вы не можете начинать темы
    Вы не можете отвечать на сообщения
    Вы не можете редактировать свои сообщения
    Вы не можете удалять свои сообщения
    Вы не можете голосовать в опросах
    Вы не можете прикреплять файлы к сообщениям
    Вы не можете скачивать файлы