BitTorrentTracker PerecTracker.org
BitTorrentTracker PerecTracker.org
    
Регистрация  ·  Вход
 
 · 
Забыли пароль?

  • Тайна Бургундского двора / Чудо волков / Le miracle des loups (Андре Юнебель / André Hunebelle) [1961, Франция, Италия, боевик, драма, приключения, DVDRip-AVC] Dub (Советский) + MVO (Светла) + MVO (CP Digital) + Original Fra

    Ответить на тему
     
    Автор Сообщение

    rechyn

    Создавать темы 09-Июн-2013 10:25

           

    [Цитировать]

    Тайна Бургундского двора / Чудо волков / Le miracle des loupsСтрана: Франция, Италия
    Жанр: боевик, драма, приключения
    Год выпуска: 1961
    Продолжительность: 01:38:58
    Перевод 1: Профессиональный (дублированный) - Советский
    Перевод 2: Профессиональный (многоголосый закадровый) - "Светла"
    Перевод 3: Профессиональный (многоголосый закадровый) - "CP Digital" --- [Отдельно]
    Cубтитры: нет
    Оригинальная аудиодорожка: французский
    Режиссер: Андре Юнебель / André Hunebelle
    Сценарий: Анри Дюпуи-Мазель, Пьер Фуко, Жан Ален
    В ролях: Жан Маре, Розанна Скьяффино, Роже Анен, Жан-Луи Барро, Ги Делорм, Анни Андерсон, Рафаэль Альберт-Ламберт, Рауль Бийре, Жан Ланье, Жорж Ликан.
    Описание: Благородный рыцарь граф де Невиль влюблен в Жанну де Бове — крестницу Людовика ХI. Однако французский король — по политическим соображениям — хочет выдать ее замуж за Карла Смелого, герцога Бургундского, коварного вдохновителя государственного заговора.
    Герцог похищает Жанну, но граф де Невиль проникает в замок и в головоркужительно красивых поединках освобождает возлюбленную. Однако их любви предстоят тяжкие испытания…
    Доп. информация: Рип сделан из DVD9.----Премьера (мир): 6 сентября 1961
    --Качество видео: DVDRip-AVC
    Формат видео: MKV
    Видео: x264, 692x428@984x428(Анаморф), 2.299:1, 25.000 fps, 2 449 kbit/s, Progressive, 0.331 Bits/(Pixel*Frame)
    Аудио 1: AC-3, 48 KHz, 2 ch, 192 Kbps, Русский - Профессиональный (дублированный) - Советский
    Аудио 2: AC-3, 48 KHz, 2 ch, 192 Kbps, Русский - Профессиональный (многоголосый закадровый) - "Светла"
    Аудио 3: AC-3, 48 KHz, 2 ch, 192 Kbps, Русский - Профессиональный (многоголосый закадровый) - "CP Digital" --- [Отдельно]
    Аудио 4: AC-3, 48 KHz, 2 ch, 224 Kbps, Французский - Original

    x264 log__MI(Только видео)

    MI

    General
    Complete name : Le miracle des loups_1961_DVDRip-AVC_.mkv
    Format : Matroska
    Format version : Version 2
    File size : 1.73 GiB
    Duration : 1h 38mn
    Overall bit rate : 2 499 Kbps
    Writing application : x264 r2273 b3065e6
    Writing library : Haali Matroska Writer b0
    Video
    ID : 1
    Format : AVC
    Format/Info : Advanced Video Codec
    Format profile : High@L4.1
    Format settings, CABAC : Yes
    Format settings, ReFrames : 13 frames
    Codec ID : V_MPEG4/ISO/AVC
    Duration : 1h 38mn
    Bit rate : 2 449 Kbps
    Width : 692 pixels
    Height : 428 pixels
    Display aspect ratio : 2.25:1
    Frame rate mode : Constant
    Frame rate : 25.000 fps
    Color space : YUV
    Chroma subsampling : 4:2:0
    Bit depth : 8 bits
    Scan type : Progressive
    Bits/(Pixel*Frame) : 0.331
    Stream size : 1.69 GiB (98%)
    Writing library : x264 core 130 r2273 b3065e6
    Encoding settings : cabac=1 / ref=13 / deblock=1:-3:-3 / analyse=0x3:0x133 / me=umh / subme=11 / psy=0 / mixed_ref=0 / me_range=32 / chroma_me=1 / trellis=2 / 8x8dct=1 / cqm=0 / deadzone=6,6 / fast_pskip=0 / chroma_qp_offset=0 / threads=6 / lookahead_threads=1 / sliced_threads=0 / nr=0 / decimate=0 / interlaced=0 / bluray_compat=0 / constrained_intra=0 / bframes=7 / b_pyramid=2 / b_adapt=2 / b_bias=0 / direct=3 / weightb=1 / open_gop=0 / weightp=2 / keyint=250 / keyint_min=25 / scenecut=40 / intra_refresh=0 / rc_lookahead=60 / rc=crf / mbtree=0 / crf=19.5 / qcomp=0.80 / qpmin=0 / qpmax=69 / qpstep=4 / vbv_maxrate=62500 / vbv_bufsize=78125 / crf_max=0.0 / nal_hrd=none / ip_ratio=1.10 / pb_ratio=1.10 / aq=1:0.50
    Language : French
    Default : Yes
    Forced : No
    ---[NoImage] raw [info]: 692x428p 64:45 @ 25/1 fps (cfr)
    ---[NoImage] x264 [info]: using SAR=64/45
    ---[NoImage] x264 [info]: using cpu capabilities: MMX2 SSE2Fast SSSE3 SSE4.2 AVX
    ---[NoImage] x264 [info]: profile High, level 4.1
    ---[NoImage]
    ---[NoImage] x264 [info]: frame I:1034 Avg QP:21.73 size: 51830
    ---[NoImage] x264 [info]: frame P:40038 Avg QP:22.12 size: 23254
    ---[NoImage] x264 [info]: frame B:107378 Avg QP:23.35 size: 8093
    ---[NoImage] x264 [info]: consecutive B-frames: 6.9% 1.5% 9.3% 31.8% 18.7% 28.8% 2.3% 0.7%
    ---[NoImage] x264 [info]: mb I I16..4: 14.6% 55.4% 30.0%
    ---[NoImage] x264 [info]: mb P I16..4: 3.1% 8.5% 4.2% P16..4: 44.8% 14.8% 13.1% 3.9% 0.6% skip: 6.9%
    ---[NoImage] x264 [info]: mb B I16..4: 0.4% 1.6% 0.8% B16..8: 21.8% 19.4% 4.7% direct: 9.7% skip:41.5% L0:21.2% L1:32.9% BI:45.9%
    ---[NoImage] x264 [info]: 8x8 transform intra:54.6% inter:43.8%
    ---[NoImage] x264 [info]: direct mvs spatial:100.0% temporal:0.0%
    ---[NoImage] x264 [info]: coded y,uvDC,uvAC intra: 78.7% 54.5% 22.2% inter: 33.5% 12.5% 2.3%
    ---[NoImage] x264 [info]: i16 v,h,dc,p: 24% 16% 34% 26%
    ---[NoImage] x264 [info]: i8 v,h,dc,ddl,ddr,vr,hd,vl,hu: 28% 13% 19% 5% 6% 8% 5% 9% 8%
    ---[NoImage] x264 [info]: i4 v,h,dc,ddl,ddr,vr,hd,vl,hu: 28% 20% 17% 4% 6% 7% 5% 6% 6%
    ---[NoImage] x264 [info]: i8c dc,h,v,p: 22% 31% 27% 21%
    ---[NoImage] x264 [info]: Weighted P-Frames: Y:10.5% UV:3.3%
    ---[NoImage] x264 [info]: ref P L0: 59.8% 6.9% 14.1% 4.0% 3.5% 2.2% 2.3% 1.2% 1.3% 1.0% 1.1% 0.9% 1.1% 0.5% 0.1%
    ---[NoImage] x264 [info]: ref B L0: 91.7% 5.0% 1.1% 0.7% 0.4% 0.3% 0.2% 0.2% 0.1% 0.1% 0.1% 0.1%
    ---[NoImage] x264 [info]: ref B L1: 98.4% 1.6%
    ---[NoImage] x264 [info]: kb/s:2497.36
    ---[NoImage] encoded 148450 frames, 2.91 fps, 2497.36 kb/s

    MediaInfo

    General
    Unique ID : 232455895236545061250500434174746665269 (0xAEE1607F0B4FC5939BE7F317E805A135)
    Complete name : Le miracle des loups_1961_DVDRip-AVC_.mkv
    Format : Matroska
    Format version : Version 4 / Version 2
    File size : 2.15 GiB
    Duration : 1h 38mn
    Overall bit rate : 3 108 Kbps
    Encoded date : UTC 2013-06-08 20:41:33
    Writing application : mkvmerge v6.1.0 ('Old Devil') built on Mar 2 2013 14:32:37
    Writing library : libebml v1.3.0 + libmatroska v1.4.0
    Video
    ID : 1
    Format : AVC
    Format/Info : Advanced Video Codec
    Format profile : High@L4.1
    Format settings, CABAC : Yes
    Format settings, ReFrames : 13 frames
    Codec ID : V_MPEG4/ISO/AVC
    Duration : 1h 38mn
    Bit rate : 2 438 Kbps
    Width : 692 pixels
    Height : 428 pixels
    Display aspect ratio : 2.25:1
    Frame rate mode : Constant
    Frame rate : 25.000 fps
    Color space : YUV
    Chroma subsampling : 4:2:0
    Bit depth : 8 bits
    Scan type : Progressive
    Bits/(Pixel*Frame) : 0.329
    Stream size : 1.69 GiB (78%)
    Title : Le miracle des loups_1961_DVDRip-AVC_ripped_by_rjhlb777
    Writing library : x264 core 130 r2273 b3065e6
    Encoding settings : cabac=1 / ref=13 / deblock=1:-3:-3 / analyse=0x3:0x133 / me=umh / subme=11 / psy=0 / mixed_ref=0 / me_range=32 / chroma_me=1 / trellis=2 / 8x8dct=1 / cqm=0 / deadzone=6,6 / fast_pskip=0 / chroma_qp_offset=0 / threads=6 / lookahead_threads=1 / sliced_threads=0 / nr=0 / decimate=0 / interlaced=0 / bluray_compat=0 / constrained_intra=0 / bframes=7 / b_pyramid=2 / b_adapt=2 / b_bias=0 / direct=3 / weightb=1 / open_gop=0 / weightp=2 / keyint=250 / keyint_min=25 / scenecut=40 / intra_refresh=0 / rc_lookahead=60 / rc=crf / mbtree=0 / crf=19.5 / qcomp=0.80 / qpmin=0 / qpmax=69 / qpstep=4 / vbv_maxrate=62500 / vbv_bufsize=78125 / crf_max=0.0 / nal_hrd=none / ip_ratio=1.10 / pb_ratio=1.10 / aq=1:0.50
    Language : French
    Default : Yes
    Forced : No
    Audio #1
    ID : 2
    Format : AC-3
    Format/Info : Audio Coding 3
    Mode extension : CM (complete main)
    Format settings, Endianness : Big
    Codec ID : A_AC3
    Duration : 1h 38mn
    Bit rate mode : Constant
    Bit rate : 192 Kbps
    Channel(s) : 2 channels
    Channel positions : Front: L R
    Sampling rate : 48.0 KHz
    Bit depth : 16 bits
    Compression mode : Lossy
    Stream size : 136 MiB (6%)
    Title : DUB_"USSR"
    Language : Russian
    Default : Yes
    Forced : No
    Audio #2
    ID : 3
    Format : AC-3
    Format/Info : Audio Coding 3
    Mode extension : CM (complete main)
    Format settings, Endianness : Big
    Codec ID : A_AC3
    Duration : 1h 38mn
    Bit rate mode : Constant
    Bit rate : 192 Kbps
    Channel(s) : 2 channels
    Channel positions : Front: L R
    Sampling rate : 48.0 KHz
    Bit depth : 16 bits
    Compression mode : Lossy
    Stream size : 136 MiB (6%)
    Title : MVO_"Svetla"
    Language : Russian
    Default : No
    Forced : No
    Audio #3
    ID : 4
    Format : AC-3
    Format/Info : Audio Coding 3
    Mode extension : CM (complete main)
    Format settings, Endianness : Big
    Codec ID : A_AC3
    Duration : 1h 38mn
    Bit rate mode : Constant
    Bit rate : 224 Kbps
    Channel(s) : 2 channels
    Channel positions : Front: L R
    Sampling rate : 48.0 KHz
    Bit depth : 16 bits
    Compression mode : Lossy
    Stream size : 159 MiB (7%)
    Title : Original
    Language : French
    Default : No
    Forced : No
    Menu
    00:00:00.000 : fr:Chapter 1
    00:05:05.760 : fr:Chapter 2
    00:11:36.120 : fr:Chapter 3
    00:16:04.440 : fr:Chapter 4
    00:22:20.080 : fr:Chapter 5
    00:26:56.800 : fr:Chapter 6
    00:33:28.960 : fr:Chapter 7
    00:38:29.360 : fr:Chapter 8
    00:44:10.160 : fr:Chapter 9
    00:49:04.880 : fr:Chapter 10
    00:52:28.520 : fr:Chapter 11
    00:58:58.280 : fr:Chapter 12
    01:04:46.760 : fr:Chapter 13
    01:10:06.160 : fr:Chapter 14
    01:14:31.120 : fr:Chapter 15
    01:18:55.600 : fr:Chapter 16
    01:25:40.440 : fr:Chapter 17
    01:31:32.440 : fr:Chapter 18

    Скриншоты








    ---

    Коврики и Блинчики


    ---
    Скачать .torrent

    Скачать торрент-файл бесплатно и на максимальной скорости!

    Как скачивать? · Что такое торрент? · Рейтинг и ограничения

    !ВНИМАНИЕ!
    Сайт не распространяет и не хранит электронные версии произведений, а занимается лишь лишь предоставлением доступа к создаваемому пользователями каталогу ссылок на торрент-файлы, которые содержат только списки хеш-сумм, убедительная просьба с жалобами обращаться напрямую к пользователю. Файлы для обмена на трекере предоставлены пользователями сайта, и администрация не несёт ответственности за их содержание. Просьба не заливать файлы, защищенные авторскими правами, а также файлы нелегального содержания!


    _________________
    [Профиль] [ЛС]
    Показать сообщения:    
    Ответить на тему

    Текущее время: Сегодня, в 22:05

    Часовой пояс: GMT + 2



    Вы не можете начинать темы
    Вы не можете отвечать на сообщения
    Вы не можете редактировать свои сообщения
    Вы не можете удалять свои сообщения
    Вы не можете голосовать в опросах
    Вы не можете прикреплять файлы к сообщениям
    Вы не можете скачивать файлы