BitTorrentTracker PerecTracker.org
BitTorrentTracker PerecTracker.org
    
Регистрация  ·  Вход
 
 · 
Забыли пароль?

  • [iPad] Снайпер / American Sniper (Клинт Иствуд / Clint Eastwood ) [2014, США, Боевик, триллер, военный, биография, BDRip, SD (576p)] DUB + Original + sub (rus, ukr, eng)

    Ответить на тему
     
    Автор Сообщение

    rechyn

    Создавать темы 02-Сен-2015 12:53

           

    [Цитировать]

    Снайпер / American Sniper
    «Под прицелом у смерти»
    6.974 / 10 7.40 / 10
    -Год выпуска: 2014
    Страна: США
    Жанр: Боевик, триллер, военный, биография
    Продолжительность: 02:12:39
    Перевод: Дублированный (iTunes)
    Оригинальная аудиодорожка: Есть
    Cубтитры: Русские форсированные, Украинские форсированные, Русские, Украинские, Английские
    Режиссёр: Клинт Иствуд
    Сценарий: Джейсон Холл, Крис Кайл, Скотт МакЭвен
    Продюсер: Брэдли Купер, Клинт Иствуд, Эндрю Лазар
    Оператор: Том Стерн
    Художник: Черисс Карденас, Джеймс Дж. Мураками, Гарри Е. Отто
    Монтаж: Джоэль Кокс, Гари Роач
    В ролях: Брэдли Купер, Сиенна Миллер, Кайл Галлнер, Коул Конис, Бен Рид, Элиз Робертсон, Люк Саншайн, Трой Винсент, Брэндон Сальгадо, Кейр О’Доннелл
    Бюджет: $58 800 000
    Сборы в США: $349 358 708
    Сборы в мире: + $193 400 000 = $542 758 708
    Сборы в России: $666 618
    Мировая премьера: 11 ноября 2014
    Премьера (РФ): 5 марта 2015, «Каро-Премьер»
    Релиз на DVD: 28 мая 2015, «CP Дистрибуция»
    Релиз на Blu-Ray: 28 мая 2015, «CP Дистрибуция»
    Описание: Экранизация мемуаров «морского котика» из Техаса Криса Кайла, который служил снайпером в Ираке и стал рекордсменом по числу убитых солдат противника, за что иракцы прозвали его дьяволом. Кроме самой войны, фильм рассказывает о воспоминаниях жены Криса, которая была свидетелем растущей привязанности мужа к его сослуживцам.-Качество исходника: BDRemux
    Качество: BDRip
    Тип: SD (576p)
    Контейнер: M4V
    Видео: H.264, 1024x432, 2.40:1, 2 200 Kbps, 23.976 fps
    Аудио 1: Русский/Дублированный (iTunes), AAC / 2.0 / 151 Kbps / 48.0 KHz
    Аудио 2: Английский/Оригинальная дорожка , AAC / 2.0 / 151 Kbps / 48.0 KHz
    Аудио 3: Украинский/Дублированный (iTunes), AAC / 2.0 / 151 Kbps / 48.0 KHz
    Субтитры 1: Русские форсированные
    Субтитры 2: Украинские форсированные
    Субтитры 3: Русские полные
    Субтитры 4: Украинские полные
    Субтитры 5: Английские полные
    -

    iTunes Meta Tags

    Sort Name: American Sniper
    XID: Apple:vendor_id:2014-683919
    contentID: 948537335
    Copyright: © 2014 Warner Bros. Entertainment Inc., Village Roadshow Films North America Inc. and Ratpac-Dune Entertainment LLC. All Rights Reserved.
    Screenwriters: Джейсон Холл, Крис Кайл, Скотт МакЭвен
    Producers: Брэдли Купер, Клинт Иствуд, Эндрю Лазар
    Director: Клинт Иствуд
    Cast: Брэдли Купер, Сиенна Миллер, Кайл Галлнер, Коул Конис, Бен Рид, Элиз Робертсон, Люк Саншайн, Трой Винсент, Брэндон Сальгадо, Кейр О’Доннелл, Василий Дахненко, Наталья Грачёва, Павел Кузьмин, Александр Хошабаев, Сергей Печенкин
    Studio: Warner Bros.
    Rating: 11
    Long Description: Экранизация мемуаров "морского котика" из Техаса Криса Кайла, который служил снайпером в Ираке и стал рекордсменом по числу убитых солдат противника, за что иракцы прозвали его дьяволом. Кроме самой войны, фильм рассказывает о воспоминаниях жены Криса, которая была свидетелем растущей привязанности мужа к его сослуживцам.
    Description: Экранизация мемуаров "морского котика" из Техаса Криса Кайла, который служил снайпером в Ираке и стал рекордсменом по числу убитых солдат противника, за что иракцы прозвали его дьяволом. Кроме самой войны, фильм рассказывает о воспоминаниях жены Криса, которая была свидетелем растущей привязанности мужа к его сослуживцам.
    Release Date: 2014-11-11T08:00:00Z
    Genre: Drama
    Artist: Clint Eastwood
    Name: American Sniper

    MediaInfo

    General
    Complete name                            : /Users/imac/HandBrake/American.Sniper.(SD).(pk).m4v
    Format                                   : MPEG-4
    Codec ID                                 : M4V
    File size                                : 2.47 GiB
    Duration                                 : 2h 12mn
    Overall bit rate mode                    : Variable
    Overall bit rate                         : 2 662 Kbps
    Movie name                               : American Sniper
    Performer                                : Clint Eastwood
    Genre                                    : Drama
    Recorded date                            : UTC 2014-11-11 08:00:00
    Encoded date                             : UTC 2015-05-13 09:49:14
    Tagged date                              : UTC 2015-05-13 09:50:46
    Copyright                                : © 2014 Warner Bros. Entertainment Inc., Village Roadshow Films North America Inc. and Ratpac-Dune Entertainment LLC. All Rights Reserved.
    Cover                                    : Yes
    sonm                                     : American Sniper
    desc                                     : Экранизация мемуаров "морского котика" из Техаса Криса Кайла, который служил снайпером в Ираке и стал рекордсменом по числу убитых солдат противника, за что иракцы прозвали его дьяволом. Кроме самой войны, фильм рассказывает о воспоминаниях жены Криса, которая была свидетелем растущей привязанности мужа к его сослуживцам.
    ldes                                     : Экранизация мемуаров "морского котика" из Техаса Криса Кайла, который служил снайпером в Ираке и стал рекордсменом по числу убитых солдат противника, за что иракцы прозвали его дьяволом. Кроме самой войны, фильм рассказывает о воспоминаниях жены Криса, которая была свидетелем растущей привязанности мужа к его сослуживцам.
    stik                                     : 9
    rtng                                     : 0
    cnID                                     : 948537335
    xid                                      : Apple:vendor_id:2014-683919
    iTunEXTC                                 : mpaa|R|400|
    iTunMOVI                                 : <?xml version=\"1.0\" encoding=\"UTF-8\"?> / <!DOCTYPE plist PUBLIC \"-//Apple//DTD PLIST 1.0//EN\" \"http://anonym.to/?http://www.apple.com/DTDs/PropertyList-1.0.dtd\"> / <plist version=\"1.0\"> / <dict> /  <key>cast</key> /  <array> /   <dict> /    <key>name</key> /    <string>Брэдли Купер</string> /   </dict> /   <dict> /    <key>name</key> /    <string>Сиенна Миллер</string> /   </dict> /   <dict> /    <key>name</key> /    <string>Кайл Галлнер</string> /   </dict> /   <dict> /    <key>name</key> /    <string>Коул Конис</string> /   </dict> /   <dict> /    <key>name</key> /    <string>Бен Рид</string> /   </dict> /   <dict> /    <key>name</key> /    <string>Элиз Робертсон</string> /   </dict> /   <dict> /    <key>name</key> /    <string>Люк Саншайн</string> /   </dict> /   <dict> /    <key>name</key> /    <string>Трой Винсент</string> /   </dict> /   <dict> /    <key>name</key> /    <string>Брэндон Сальгадо</string> /   </dict> /   <dict> /    <key>name</key> /    <string>Кейр О’Доннелл</string> /   </dict> /   <dict> /    <key>name</key> /    <string>Василий Дахненко</string> /   </dict> /   <dict> /    <key>name</key> /    <string>Наталья Грачёва</string> /   </dict> /   <dict> /    <key>name</key> /    <string>Павел Кузьмин</string> /   </dict> /   <dict> /    <key>name</key> /    <string>Александр Хошабаев</string> /   </dict> /   <dict> /    <key>name</key> /    <string>Сергей Печенкин</string> /   </dict> /  </array> /  <key>directors</key> /  <array> /   <dict> /    <key>name</key> /    <string>Клинт Иствуд</string> /   </dict> /  </array> /  <key>producers</key> /  <array> /   <dict> /    <key>name</key> /    <string>Брэдли Купер</string> /   </dict> /   <dict> /    <key>name</key> /    <string>Клинт Иствуд</string> /   </dict> /   <dict> /    <key>name</key> /    <string>Эндрю Лазар</string> /   </dict> /  </array> /  <key>screenwriters</key> /  <array> /   <dict> /    <key>name</key> /    <string>Джейсон Холл</string> /   </dict> /   <dict> /    <key>name</key> /    <string>Крис Кайл</string> /   </dict> /   <dict> /    <key>name</key> /    <string>Скотт МакЭвен</string> /   </dict> /  </array> /  <key>studio</key> /  <string>Warner Bros.</string> / </dict> / </plist>
    Video #1
    ID                                       : 1
    Format                                   : AVC
    Format/Info                              : Advanced Video Codec
    Format profile                           : High@L3.1
    Format settings, CABAC                   : Yes
    Format settings, ReFrames                : 9 frames
    Codec ID                                 : avc1
    Codec ID/Info                            : Advanced Video Coding
    Duration                                 : 2h 12mn
    Bit rate mode                            : Variable
    Bit rate                                 : 2 200 Kbps
    Width                                    : 1 024 pixels
    Height                                   : 432 pixels
    Display aspect ratio                     : 2.40:1
    Frame rate mode                          : Variable
    Frame rate                               : 23.976 fps
    Minimum frame rate                       : 23.974 fps
    Maximum frame rate                       : 23.981 fps
    Color space                              : YUV
    Chroma subsampling                       : 4:2:0
    Bit depth                                : 8 bits
    Scan type                                : Progressive
    Bits/(Pixel*Frame)                       : 0.207
    Stream size                              : 2.04 GiB (83%)
    Writing library                          : x264 core 142 r2479 dd79a61
    Encoding settings                        : cabac=1 / ref=9 / deblock=1:0:0 / analyse=0x3:0x113 / me=umh / subme=9 / psy=1 / psy_rd=1.00:0.00 / mixed_ref=1 / me_range=32 / chroma_me=1 / trellis=1 / 8x8dct=1 / cqm=0 / deadzone=21,11 / fast_pskip=1 / chroma_qp_offset=-2 / threads=36 / lookahead_threads=3 / sliced_threads=0 / nr=0 / decimate=1 / interlaced=0 / bluray_compat=0 / constrained_intra=0 / bframes=6 / b_pyramid=2 / b_adapt=2 / b_bias=0 / direct=1 / weightb=1 / open_gop=0 / weightp=2 / keyint=240 / keyint_min=24 / scenecut=40 / intra_refresh=0 / rc_lookahead=40 / rc=2pass / mbtree=1 / bitrate=2200 / ratetol=1.0 / qcomp=0.60 / qpmin=0 / qpmax=69 / qpstep=4 / cplxblur=20.0 / qblur=0.5 / ip_ratio=1.40 / aq=1:1.00
    Encoded date                             : UTC 2015-05-13 09:49:14
    Tagged date                              : UTC 2015-05-13 09:49:21
    Color primaries                          : BT.709-5, BT.1361, IEC 61966-2-4, SMPTE RP177
    Transfer characteristics                 : BT.709-5, BT.1361
    Matrix coefficients                      : BT.709-5, BT.1361, IEC 61966-2-4 709, SMPTE RP177
    Video #2
    ID                                       : 11
    Format                                   : JPEG
    Codec ID                                 : jpeg
    Duration                                 : 2h 12mn
    Bit rate mode                            : Variable
    Bit rate                                 : 660 bps
    Width                                    : 640 pixels
    Height                                   : 270 pixels
    Display aspect ratio                     : 2.40:1
    Frame rate mode                          : Variable
    Frame rate                               : 0.002 fps
    Minimum frame rate                       : 0.001 fps
    Maximum frame rate                       : 0.002 fps
    Color space                              : YUV
    Chroma subsampling                       : 4:2:0
    Bit depth                                : 8 bits
    Compression mode                         : Lossy
    Bits/(Pixel*Frame)                       : 1.910
    Stream size                              : 524 KiB (0%)
    Encoded date                             : UTC 2015-05-13 09:49:59
    Tagged date                              : UTC 2015-05-13 09:49:59
    Audio #1
    ID                                       : 2
    Format                                   : AAC
    Format/Info                              : Advanced Audio Codec
    Format profile                           : LC
    Codec ID                                 : 40
    Duration                                 : 2h 12mn
    Bit rate mode                            : Variable
    Bit rate                                 : 151 Kbps
    Maximum bit rate                         : 242 Kbps
    Channel(s)                               : 2 channels
    Channel positions                        : Front: L R
    Sampling rate                            : 48.0 KHz
    Compression mode                         : Lossy
    Stream size                              : 143 MiB (6%)
    Language                                 : Russian
    Encoded date                             : UTC 2015-05-13 09:49:14
    Tagged date                              : UTC 2015-05-13 09:49:56
    Audio #2
    ID                                       : 3
    Format                                   : AAC
    Format/Info                              : Advanced Audio Codec
    Format profile                           : LC
    Codec ID                                 : 40
    Duration                                 : 2h 12mn
    Bit rate mode                            : Variable
    Bit rate                                 : 151 Kbps
    Maximum bit rate                         : 262 Kbps
    Channel(s)                               : 2 channels
    Channel positions                        : Front: L R
    Sampling rate                            : 48.0 KHz
    Compression mode                         : Lossy
    Stream size                              : 143 MiB (6%)
    Language                                 : English
    Encoded date                             : UTC 2015-05-13 09:49:14
    Tagged date                              : UTC 2015-05-13 09:49:56
    Audio #3
    ID                                       : 4
    Format                                   : AAC
    Format/Info                              : Advanced Audio Codec
    Format profile                           : LC
    Codec ID                                 : 40
    Duration                                 : 2h 12mn
    Bit rate mode                            : Variable
    Bit rate                                 : 151 Kbps
    Maximum bit rate                         : 251 Kbps
    Channel(s)                               : 2 channels
    Channel positions                        : Front: L R
    Sampling rate                            : 48.0 KHz
    Compression mode                         : Lossy
    Stream size                              : 143 MiB (6%)
    Language                                 : Ukrainian
    Encoded date                             : UTC 2015-05-13 09:49:14
    Tagged date                              : UTC 2015-05-13 09:49:56
    Text #1
    ID                                       : 5
    Format                                   : Timed text
    Muxing mode                              : sbtl
    Codec ID                                 : tx3g
    Duration                                 : 2h 5mn
    Bit rate mode                            : Variable
    Bit rate                                 : 1 bps
    Stream size                              : 704 Bytes (0%)
    Language                                 : Russian
    Encoded date                             : UTC 2015-05-13 09:49:14
    Tagged date                              : UTC 2015-05-13 09:49:55
    Text #2
    ID                                       : 6
    Format                                   : Timed text
    Muxing mode                              : sbtl
    Codec ID                                 : tx3g
    Duration                                 : 2h 5mn
    Bit rate mode                            : Variable
    Bit rate                                 : 1 bps
    Stream size                              : 708 Bytes (0%)
    Language                                 : Ukrainian
    Encoded date                             : UTC 2015-05-13 09:49:14
    Tagged date                              : UTC 2015-05-13 09:49:55
    Text #3
    ID                                       : 7
    Format                                   : Timed text
    Muxing mode                              : sbtl
    Codec ID                                 : tx3g
    Duration                                 : 2h 5mn
    Bit rate mode                            : Variable
    Bit rate                                 : 98 bps
    Stream size                              : 90.6 KiB (0%)
    Language                                 : Russian
    Encoded date                             : UTC 2015-05-13 09:49:14
    Tagged date                              : UTC 2015-05-13 09:49:55
    Text #4
    ID                                       : 8
    Format                                   : Timed text
    Muxing mode                              : sbtl
    Codec ID                                 : tx3g
    Duration                                 : 2h 5mn
    Bit rate mode                            : Variable
    Bit rate                                 : 92 bps
    Stream size                              : 85.2 KiB (0%)
    Language                                 : Ukrainian
    Encoded date                             : UTC 2015-05-13 09:49:14
    Tagged date                              : UTC 2015-05-13 09:49:55
    Text #5
    ID                                       : 9
    Format                                   : Timed text
    Muxing mode                              : sbtl
    Codec ID                                 : tx3g
    Duration                                 : 2h 12mn
    Bit rate mode                            : Variable
    Bit rate                                 : 73 bps
    Stream size                              : 71.1 KiB (0%)
    Language                                 : English
    Encoded date                             : UTC 2015-05-13 09:49:14
    Tagged date                              : UTC 2015-05-13 09:49:54
    Text #6
    ID                                       : 10
    Format                                   : Apple text
    Codec ID                                 : text
    Duration                                 : 2h 12mn
    Bit rate mode                            : Variable
    Bit rate                                 : 0 bps
    Stream size                              : 303 Bytes (0%)
    Language                                 : English
    Encoded date                             : UTC 2015-05-13 09:49:56
    Tagged date                              : UTC 2015-05-13 09:49:56
    Menu
    00:00:00.000                             : Chapter 1
    00:10:15.323                             : Chapter 2
    00:18:57.011                             : Chapter 3
    00:28:27.664                             : Chapter 4
    00:39:04.509                             : Chapter 5
    00:50:57.721                             : Chapter 6
    01:00:06.812                             : Chapter 7
    01:07:56.531                             : Chapter 8
    01:28:44.110                             : Chapter 9
    01:37:24.172                             : Chapter 10
    01:45:57.101                             : Chapter 11
    01:54:44.086                             : Chapter 12
    02:04:13.446                             : Chapter 13

    x264 лог

    x264 [info]: frame I:2018  Avg QP:12.61  size: 88042
    x264 [info]: frame P:48058 Avg QP:15.51  size: 24662
    x264 [info]: frame B:140769 Avg QP:18.46  size:  5866
    x264 [info]: consecutive B-frames:  3.5%  4.8% 10.3% 34.4% 19.4% 21.5%  6.1%
    x264 [info]: mb I  I16..4:  7.9% 61.6% 30.6%
    x264 [info]: mb P  I16..4:  1.1%  7.3%  2.6%  P16..4: 36.2% 27.6% 18.0%  0.0%  0.0%    skip: 7.2%
    x264 [info]: mb B  I16..4:  0.1%  0.6%  0.3%  B16..8: 38.9% 11.0%  3.3%  direct: 4.2%  skip:41.6%  L0:42.3% L1:44.6% BI:13.1%
    x264 [info]: 8x8 transform intra:64.5% inter:67.2%
    x264 [info]: coded y,uvDC,uvAC intra: 88.1% 79.7% 56.8% inter: 26.9% 16.4% 3.1%
    x264 [info]: i16 v,h,dc,p: 28% 16% 11% 46%
    x264 [info]: i8 v,h,dc,ddl,ddr,vr,hd,vl,hu: 11% 10%  5%  9% 13% 13% 13% 12% 13%
    x264 [info]: i4 v,h,dc,ddl,ddr,vr,hd,vl,hu: 10%  9%  3%  9% 15% 14% 14% 12% 14%
    x264 [info]: i8c dc,h,v,p: 39% 28% 20% 13%
    x264 [info]: Weighted P-Frames: Y:3.4% UV:1.2%
    x264 [info]: ref P L0: 52.0% 12.4% 13.6%  6.6%  4.4%  3.9%  2.9%  2.1%  1.8%  0.3%  0.0%
    x264 [info]: ref B L0: 75.5% 10.9%  5.7%  2.8%  2.2%  1.7%  1.0%  0.3%
    x264 [info]: ref B L1: 91.4%  8.6%
    x264 [info]: kb/s:2199.69

    Скриншоты

    -

    Релиз подготовлен для просмотра на Apple TV, iPad, iPhone, iPod Touch.
    Для просмотра данного релиза на компьютере с ОС Windows рекомендуется использовать VLC media player
    Скачать .torrent

    Скачать торрент-файл бесплатно и на максимальной скорости!

    Как скачивать? · Что такое торрент? · Рейтинг и ограничения

    !ВНИМАНИЕ!
    Сайт не распространяет и не хранит электронные версии произведений, а занимается лишь лишь предоставлением доступа к создаваемому пользователями каталогу ссылок на торрент-файлы, которые содержат только списки хеш-сумм, убедительная просьба с жалобами обращаться напрямую к пользователю. Файлы для обмена на трекере предоставлены пользователями сайта, и администрация не несёт ответственности за их содержание. Просьба не заливать файлы, защищенные авторскими правами, а также файлы нелегального содержания!


    _________________
    [Профиль] [ЛС]
    Показать сообщения:    
    Ответить на тему

    Текущее время: Сегодня, в 16:23

    Часовой пояс: GMT + 2



    Вы не можете начинать темы
    Вы не можете отвечать на сообщения
    Вы не можете редактировать свои сообщения
    Вы не можете удалять свои сообщения
    Вы не можете голосовать в опросах
    Вы не можете прикреплять файлы к сообщениям
    Вы не можете скачивать файлы