BitTorrentTracker PerecTracker.org
BitTorrentTracker PerecTracker.org
    
Регистрация  ·  Вход
 
 · 
Забыли пароль?

  • [iPad] Робот по имени Чаппи / Chappie (Нил Бломкамп / Neill Blomkamp ) [2015, США, Мексика, ЮАР, Фантастика, боевик, триллер, WEB-DLRip, SD (576p)] DUB + Original + sub (rus, eng, ukr)

    Ответить на тему
     
    Автор Сообщение

    rechyn

    Создавать темы 02-Сен-2015 12:53

           

    [Цитировать]

    Робот по имени Чаппи / Chappie
    «I am discovery. I am wonder. I am chappie»
    7.446 / 10 7.20 / 10
    -Год выпуска: 2015
    Страна: США, Мексика, ЮАР
    Жанр: Фантастика, боевик, триллер
    Продолжительность: 02:00:20
    Перевод: Дублированный (iTunes)
    Оригинальная аудиодорожка: Есть
    Cубтитры: Русские форсированные, русские полные, украинские полные и английские полные
    Режиссёр: Нил Бломкамп
    Сценарий: Нил Бломкамп, Тэрри Татчелл
    Продюсер: Нил Бломкамп, Саймон Кинберг, Джеймс Битонти
    Оператор: Трент Опалок
    Композитор: Ханс Циммер
    Художник: Жуль Кук, Бобби Кардосо, Эмилия Ру
    Монтаж: Джулиан Кларк, Марк Голдблатт
    В ролях: Шарлто Копли, Дев Патель, Ниндзя, Йоланди Фиссер, Хосе Пабло Кантильо, Хью Джекман, Сигурни Уивер, Брэндон Оре, Джонни Селема, Андерсон Купер
    Бюджет: $49 000 000
    Сборы в США: $31 569 268
    Сборы в мире: + $63 200 000 = $94 769 268
    Сборы в России: $7 146 696
    Мировая премьера: 4 марта 2015
    Премьера (РФ): 5 марта 2015, «WDSSPR»
    Релиз на DVD: 11 июня 2015, «CP Дистрибуция»
    Релиз на Blu-Ray: 11 июня 2015, «CP Дистрибуция»
    Описание: Чаппи — вундеркинд. Как и любой другой ребенок, он попадает под влияние своего окружения, и только его сердце и душа помогут ему найти свой путь. Но есть одна вещь, которая делает Чаппи непохожим на всех остальных: он — первый робот, способный чувствовать и думать.-Качество исходника: WEB-DL 1080p
    Качество: WEB-DLRip
    Тип: SD (576p)
    Контейнер: M4V
    Видео: H.264, 1024x432, 2.40:1, 2 200 Kbps, 23.976 fps
    Аудио 1: Русский/Дублированный (iTunes), AAC / 2.0 / 157 Kbps / 48.0 KHz
    Аудио 2: Английский/Оригинальная дорожка , AAC / 2.0 / 159 Kbps / 48.0 KHz
    Аудио 3: Украинский/Дублированный (iTunes), AAC / 2.0 / 158 Kbps / 48.0 KHz
    Субтитры 1: Русские форсированные
    Субтитры 2: Русские полные
    Субтитры 3: Английские полные
    Субтитры 4: Украинские полные
    -

    iTunes Meta Tags

    Sort Name: Chappie
    XID: Apple:vendor_id:2015-591485
    contentID: 968594526
    Screenwriters: Нил Бломкамп, Тэрри Татчелл
    Producers: Нил Бломкамп, Саймон Кинберг, Джеймс Битонти
    Director: Нил Бломкамп
    Cast: Шарлто Копли, Дев Патель, Ниндзя, Йоланди Фиссер, Хосе Пабло Кантильо, Хью Джекман, Сигурни Уивер, Брэндон Оре, Джонни Селема, Андерсон Купер
    Studio: Alpha Core
    Rating Annotation: Rated R for violence, language and brief nudity.
    Rating: 11
    Long Description: Чаппи - вундеркинд. Как и любой другой ребенок, он попадает под влияние своего окружения, и только его сердце и душа помогут ему найти свой путь. Но есть одна вещь, которая делает Чаппи непохожим на всех остальных: он - первый робот, способный чувствовать и думать.
    Description: Чаппи - вундеркинд. Как и любой другой ребенок, он попадает под влияние своего окружения, и только его сердце и душа помогут ему найти свой путь. Но есть одна вещь, которая делает Чаппи непохожим на всех остальных: он - первый робот, способный чувствовать и думать.
    Release Date: 2015-03-04T08:00:00Z
    Genre: Action & Adventure
    Artist: Neill Blomkamp
    Name: Chappie

    MediaInfo

    General
    Complete name                            : /Users/imac/HandBrake/Chappie.(SD).(pk).m4v
    Format                                   : MPEG-4
    Codec ID                                 : M4V
    File size                                : 2.25 GiB
    Duration                                 : 2h 0mn
    Overall bit rate mode                    : Variable
    Overall bit rate                         : 2 682 Kbps
    Movie name                               : Chappie
    Performer                                : Neill Blomkamp
    Genre                                    : Action & Adventure
    Recorded date                            : UTC 2015-03-04 08:00:00
    Encoded date                             : UTC 2015-05-17 09:52:39
    Tagged date                              : UTC 2015-05-17 09:54:36
    Cover                                    : Yes
    sonm                                     : Chappie
    desc                                     : Чаппи - вундеркинд. Как и любой другой ребенок, он попадает под влияние своего окружения, и только его сердце и душа помогут ему найти свой путь. Но есть одна вещь, которая делает Чаппи непохожим на всех остальных: он - первый робот, способный чувствовать и думать.
    ldes                                     : Чаппи - вундеркинд. Как и любой другой ребенок, он попадает под влияние своего окружения, и только его сердце и душа помогут ему найти свой путь. Но есть одна вещь, которая делает Чаппи непохожим на всех остальных: он - первый робот, способный чувствовать и думать.
    stik                                     : 9
    rtng                                     : 0
    cnID                                     : 968594526
    xid                                      : Apple:vendor_id:2015-591485
    iTunEXTC                                 : mpaa|R|400|Rated R for violence, language and brief nudity.
    iTunMOVI                                 : <?xml version=\"1.0\" encoding=\"UTF-8\"?> / <!DOCTYPE plist PUBLIC \"-//Apple//DTD PLIST 1.0//EN\" \"http://anonym.to/?http://www.apple.com/DTDs/PropertyList-1.0.dtd\"> / <plist version=\"1.0\"> / <dict> /  <key>cast</key> /  <array> /   <dict> /    <key>name</key> /    <string>Шарлто Копли</string> /   </dict> /   <dict> /    <key>name</key> /    <string>Дев Патель</string> /   </dict> /   <dict> /    <key>name</key> /    <string>Ниндзя</string> /   </dict> /   <dict> /    <key>name</key> /    <string>Йоланди Фиссер</string> /   </dict> /   <dict> /    <key>name</key> /    <string>Хосе Пабло Кантильо</string> /   </dict> /   <dict> /    <key>name</key> /    <string>Хью Джекман</string> /   </dict> /   <dict> /    <key>name</key> /    <string>Сигурни Уивер</string> /   </dict> /   <dict> /    <key>name</key> /    <string>Брэндон Оре</string> /   </dict> /   <dict> /    <key>name</key> /    <string>Джонни Селема</string> /   </dict> /   <dict> /    <key>name</key> /    <string>Андерсон Купер</string> /   </dict> /  </array> /  <key>directors</key> /  <array> /   <dict> /    <key>name</key> /    <string>Нил Бломкамп</string> /   </dict> /  </array> /  <key>producers</key> /  <array> /   <dict> /    <key>name</key> /    <string>Нил Бломкамп</string> /   </dict> /   <dict> /    <key>name</key> /    <string>Саймон Кинберг</string> /   </dict> /   <dict> /    <key>name</key> /    <string>Джеймс Битонти</string> /   </dict> /  </array> /  <key>screenwriters</key> /  <array> /   <dict> /    <key>name</key> /    <string>Нил Бломкамп</string> /   </dict> /   <dict> /    <key>name</key> /    <string>Тэрри Татчелл</string> /   </dict> /  </array> /  <key>studio</key> /  <string>Alpha Core</string> / </dict> / </plist>
    Video
    ID                                       : 1
    Format                                   : AVC
    Format/Info                              : Advanced Video Codec
    Format profile                           : High@L3.1
    Format settings, CABAC                   : Yes
    Format settings, ReFrames                : 9 frames
    Codec ID                                 : avc1
    Codec ID/Info                            : Advanced Video Coding
    Duration                                 : 2h 0mn
    Bit rate mode                            : Variable
    Bit rate                                 : 2 200 Kbps
    Width                                    : 1 024 pixels
    Height                                   : 432 pixels
    Display aspect ratio                     : 2.40:1
    Frame rate mode                          : Variable
    Frame rate                               : 23.976 fps
    Minimum frame rate                       : 23.810 fps
    Maximum frame rate                       : 25.000 fps
    Color space                              : YUV
    Chroma subsampling                       : 4:2:0
    Bit depth                                : 8 bits
    Scan type                                : Progressive
    Bits/(Pixel*Frame)                       : 0.207
    Stream size                              : 1.85 GiB (82%)
    Writing library                          : x264 core 142 r2479 dd79a61
    Encoding settings                        : cabac=1 / ref=9 / deblock=1:0:0 / analyse=0x3:0x113 / me=umh / subme=9 / psy=1 / psy_rd=1.00:0.00 / mixed_ref=1 / me_range=32 / chroma_me=1 / trellis=1 / 8x8dct=1 / cqm=0 / deadzone=21,11 / fast_pskip=1 / chroma_qp_offset=-2 / threads=36 / lookahead_threads=3 / sliced_threads=0 / nr=0 / decimate=1 / interlaced=0 / bluray_compat=0 / constrained_intra=0 / bframes=6 / b_pyramid=2 / b_adapt=2 / b_bias=0 / direct=1 / weightb=1 / open_gop=0 / weightp=2 / keyint=240 / keyint_min=24 / scenecut=40 / intra_refresh=0 / rc_lookahead=40 / rc=2pass / mbtree=1 / bitrate=2200 / ratetol=1.0 / qcomp=0.60 / qpmin=0 / qpmax=69 / qpstep=4 / cplxblur=20.0 / qblur=0.5 / ip_ratio=1.40 / aq=1:1.00
    Language                                 : English
    Encoded date                             : UTC 2015-05-17 09:52:39
    Tagged date                              : UTC 2015-05-17 09:52:45
    Color primaries                          : BT.709-5, BT.1361, IEC 61966-2-4, SMPTE RP177
    Transfer characteristics                 : BT.709-5, BT.1361
    Matrix coefficients                      : BT.709-5, BT.1361, IEC 61966-2-4 709, SMPTE RP177
    Audio #1
    ID                                       : 2
    Format                                   : AAC
    Format/Info                              : Advanced Audio Codec
    Format profile                           : LC
    Codec ID                                 : 40
    Duration                                 : 2h 0mn
    Bit rate mode                            : Variable
    Bit rate                                 : 157 Kbps
    Maximum bit rate                         : 230 Kbps
    Channel(s)                               : 2 channels
    Channel positions                        : Front: L R
    Sampling rate                            : 48.0 KHz
    Compression mode                         : Lossy
    Stream size                              : 135 MiB (6%)
    Language                                 : Russian
    Encoded date                             : UTC 2015-05-17 09:52:39
    Tagged date                              : UTC 2015-05-17 09:53:26
    Audio #2
    ID                                       : 3
    Format                                   : AAC
    Format/Info                              : Advanced Audio Codec
    Format profile                           : LC
    Codec ID                                 : 40
    Duration                                 : 2h 0mn
    Bit rate mode                            : Variable
    Bit rate                                 : 159 Kbps
    Maximum bit rate                         : 230 Kbps
    Channel(s)                               : 2 channels
    Channel positions                        : Front: L R
    Sampling rate                            : 48.0 KHz
    Compression mode                         : Lossy
    Stream size                              : 137 MiB (6%)
    Language                                 : English
    Encoded date                             : UTC 2015-05-17 09:52:39
    Tagged date                              : UTC 2015-05-17 09:53:26
    Audio #3
    ID                                       : 4
    Format                                   : AAC
    Format/Info                              : Advanced Audio Codec
    Format profile                           : LC
    Codec ID                                 : 40
    Duration                                 : 2h 0mn
    Bit rate mode                            : Variable
    Bit rate                                 : 158 Kbps
    Maximum bit rate                         : 249 Kbps
    Channel(s)                               : 2 channels
    Channel positions                        : Front: L R
    Sampling rate                            : 48.0 KHz
    Compression mode                         : Lossy
    Stream size                              : 136 MiB (6%)
    Language                                 : Ukrainian
    Encoded date                             : UTC 2015-05-17 09:52:39
    Tagged date                              : UTC 2015-05-17 09:53:26
    Text #1
    ID                                       : 5
    Format                                   : Timed text
    Muxing mode                              : sbtl
    Codec ID                                 : tx3g
    Duration                                 : 1h 16mn
    Bit rate mode                            : Variable
    Bit rate                                 : 2 bps
    Stream size                              : 869 Bytes (0%)
    Language                                 : Russian
    Encoded date                             : UTC 2015-05-17 09:52:39
    Tagged date                              : UTC 2015-05-17 09:53:07
    Text #2
    ID                                       : 6
    Format                                   : Timed text
    Muxing mode                              : sbtl
    Codec ID                                 : tx3g
    Duration                                 : 1h 53mn
    Bit rate mode                            : Variable
    Bit rate                                 : 104 bps
    Stream size                              : 86.0 KiB (0%)
    Language                                 : Russian
    Encoded date                             : UTC 2015-05-17 09:52:39
    Tagged date                              : UTC 2015-05-17 09:53:23
    Text #3
    ID                                       : 7
    Format                                   : Timed text
    Muxing mode                              : sbtl
    Codec ID                                 : tx3g
    Duration                                 : 1h 53mn
    Bit rate mode                            : Variable
    Bit rate                                 : 66 bps
    Stream size                              : 54.8 KiB (0%)
    Language                                 : English
    Encoded date                             : UTC 2015-05-17 09:52:39
    Tagged date                              : UTC 2015-05-17 09:53:23
    Text #4
    ID                                       : 8
    Format                                   : Timed text
    Muxing mode                              : sbtl
    Codec ID                                 : tx3g
    Duration                                 : 1h 53mn
    Bit rate mode                            : Variable
    Bit rate                                 : 104 bps
    Stream size                              : 85.7 KiB (0%)
    Language                                 : Ukrainian
    Encoded date                             : UTC 2015-05-17 09:52:39
    Tagged date                              : UTC 2015-05-17 09:53:23

    x264 лог

    x264 [info]: frame I:1921  Avg QP:14.01  size: 75801
    x264 [info]: frame P:49243 Avg QP:16.96  size: 22056
    x264 [info]: frame B:121963 Avg QP:19.83  size:  6169
    x264 [info]: consecutive B-frames:  4.0%  8.9%  8.7% 60.0%  6.4%  7.9%  4.1%
    x264 [info]: mb I  I16..4:  8.9% 57.6% 33.5%
    x264 [info]: mb P  I16..4:  1.5%  8.6%  3.1%  P16..4: 35.1% 26.6% 15.6%  0.0%  0.0%    skip: 9.5%
    x264 [info]: mb B  I16..4:  0.1%  1.0%  0.5%  B16..8: 37.9% 10.8%  3.3%  direct: 4.6%  skip:41.9%  L0:38.9% L1:46.7% BI:14.4%
    x264 [info]: 8x8 transform intra:63.3% inter:66.4%
    x264 [info]: coded y,uvDC,uvAC intra: 85.3% 86.8% 64.8% inter: 25.1% 21.9% 5.3%
    x264 [info]: i16 v,h,dc,p: 27% 19%  6% 48%
    x264 [info]: i8 v,h,dc,ddl,ddr,vr,hd,vl,hu: 13% 11%  4%  8% 12% 13% 13% 12% 14%
    x264 [info]: i4 v,h,dc,ddl,ddr,vr,hd,vl,hu: 12% 11%  3%  9% 14% 13% 14% 11% 14%
    x264 [info]: i8c dc,h,v,p: 39% 25% 20% 16%
    x264 [info]: Weighted P-Frames: Y:2.2% UV:1.1%
    x264 [info]: ref P L0: 57.4% 11.3% 14.1%  5.5%  3.8%  2.9%  2.1%  1.3%  1.3%  0.2%  0.0%
    x264 [info]: ref B L0: 81.3%  9.1%  4.2%  2.0%  1.4%  1.1%  0.6%  0.2%
    x264 [info]: ref B L1: 94.5%  5.5%
    x264 [info]: kb/s:2198.26

    Скриншоты

    -

    Релиз подготовлен для просмотра на Apple TV, iPad, iPhone, iPod Touch.
    Для просмотра данного релиза на компьютере с ОС Windows рекомендуется использовать VLC media player
    Скачать .torrent

    Скачать торрент-файл бесплатно и на максимальной скорости!

    Как скачивать? · Что такое торрент? · Рейтинг и ограничения

    !ВНИМАНИЕ!
    Сайт не распространяет и не хранит электронные версии произведений, а занимается лишь лишь предоставлением доступа к создаваемому пользователями каталогу ссылок на торрент-файлы, которые содержат только списки хеш-сумм, убедительная просьба с жалобами обращаться напрямую к пользователю. Файлы для обмена на трекере предоставлены пользователями сайта, и администрация не несёт ответственности за их содержание. Просьба не заливать файлы, защищенные авторскими правами, а также файлы нелегального содержания!


    _________________
    [Профиль] [ЛС]
    Показать сообщения:    
    Ответить на тему

    Текущее время: Сегодня, в 20:00

    Часовой пояс: GMT + 2



    Вы не можете начинать темы
    Вы не можете отвечать на сообщения
    Вы не можете редактировать свои сообщения
    Вы не можете удалять свои сообщения
    Вы не можете голосовать в опросах
    Вы не можете прикреплять файлы к сообщениям
    Вы не можете скачивать файлы